Знайти Форрестера / Finding Forrester (2000)

Нові коментарі

Нова тема   Відповісти
Останній раз роздавалося Foosh-Coosh (2019-11-11)
Автор Повідомлення
Anonymous 







2018-07-29 14:41  
Знайти Форрестера / Finding Forrester (2000)

Знайти Форрестера / Finding Forrester (2000)
Оригінальна обкладинка:



Жанр: драма
Країна: США



Приз гільдії німецького артхауса Берлінського кінофестивалю

Кінокомпанія: Columbia Pictures Corporation
Режисер: Ґас Ван Сент / Gus Van Sant
Актори: Шон Коннері / Sean Connery, Роб Браун / Rob Brown, Ф. Мюррей Абрахам / F. Murray Abraham, Анна Паквін / Anna Paquin, Баста Раймс / Busta Rhymes, Ейпріл Ґрейс / April Grace, Ґленн Фіцджеральд / Glenn Fitzgerald, Мет Деймон / Matt Damon, Ґас Ван Сент / Gus Van Sant та інші

Сюжет:
Письменник Вільям Форрестер довгі роки прожив у добровільному самітництві від світу. Останній раз про нього чули сорок років тому, коли світ побачив його чудовий роман, що здобув Пулітцерівську премію. Але з тих пір нікому не вдалося переступити за поріг будинку цього письменника. Однак 16-літньому парубкові на ім'я Джамал Воллес вдається проникнути в житло живої легенди й розговорити відлюдного старця. І ця випадкова зустріч виявляється доленосною. Завдяки їй замкнутий у собі Форрестер знову знаходить смак до життя за межами своєї "вежі зі слонової кістки". А Джамал, талановитий баскетболіст, якому світить блискуча спортивна кар'єра, відкриває, що його щире покликання це - літературна творчість...


Рейтинг MPAA: PG-13 - дітям до 13 років перегляд не бажаний
Вікова категорія: 12+

Тривалість: 02:16:10
Якість:
Відео:
кодек:
розмір кадру: 720x304
бітрейт: 1833 кб/с

Аудіо # 1:
мова: українська
переклад: багатоголосий закадровий | Так Треба Продакшн
ролі озвучили: Шон Коннері - Олександр Ігнатуша, Юрій Ребрик, Наталя Поліщук? і Анатолій Пашнін
кодек: 5.1
бітрейт: 448 кб/с
Info:
Код:
General
Complete name               : Finding Forrester (2000) [Ukr] [Hurtom].avi
Format                      : AVI
Format/Info                 : Audio Video Interleave
Format profile              : OpenDML
File size                   : 2.18 GiB
Duration                    : 2 h 16 min
Overall bit rate            : 2 293 kb/s
Movie name                  : Знайти Форрестера / Finding Forrester (2000) [Ukr] [Hurtom & HQVideo]
Genre                       : драма
Recorded date               : 29.07.2018
Writing application         : VirtualDubModUkr 1.5.10.2 (build 2542/release)
Writing library             : VirtualDubMod build 2542/release
Comment                     : https://toloka.to/t93803

Video
ID                          : 0
Format                      : MPEG-4 Visual
Format profile              : Advanced [email protected]
Format settings             : BVOP1 / Custom Matrix
Format settings, BVOP       : 1
Format settings, QPel       : No
Format settings, GMC        : No warppoints
Format settings, Matrix     : Custom
Codec ID                    :
Codec ID/Hint               :
Duration                    : 2 h 16 min
Bit rate                    : 1 833 kb/s
Width                       : 720 pixels
Height                      : 304 pixels
Display aspect ratio        : 2.35:1
Frame rate                  : 23.976 (24000/1001) FPS
Color space                 : YUV
Chroma subsampling          : 4:2:0
Bit depth                   : 8 bits
Scan type                   : Progressive
Compression mode            : Lossy
Bits/(Pixel*Frame)          : 0.349
Stream size                 : 1.74 GiB (80%)
Writing library             : 67

Audio
ID                          : 1
Format                      : AC-3
Format/Info                 : Audio Coding 3
Codec ID                    : 2000
Duration                    : 2 h 16 min
Bit rate mode               : Constant
Bit rate                    : 448 kb/s
Channel(s)                  : 6 channels
Channel positions           : Front: L C R, Side: L R, LFE
Sampling rate               : 48.0 kHz
Frame rate                  : 31.250 FPS (1536 SPF)
Bit depth                   : 16 bits
Compression mode            : Lossy
Stream size                 : 436 MiB (20%)
Alignment                   : Split accross interleaves
Interleave, duration        : 42  ms (1.00 video frame)
Interleave, preload duratio : 500  ms
Title                       : UKR MVO [TTP, Inter]
Service kind                : Complete Main




Джерело: &
Українська доріжка - robotron005, постер - Ermolenko.


Срібний реліз (на рейтинг впливає 50% завантаженого)
 Трекер:    Зареєстрований   

Завантажити / скачати фільм українською



відео для новачків



 Зареєстрований:   2018-07-29 15:26
 Розмір:   2.18 GB 
 Оцінка фільму:   10/10 (Голосів: 7)
   
Ваш часовий пояс: GMT + 2 Години

Нова тема   Відповісти