Єва / Eva (2018) 1080p

Нові коментарі

Нова тема   Відповісти
Автор Повідомлення
Anonymous 







2018-07-29 10:27  
Єва / Eva (2018) 1080p



Жанр: драма, мелодрама, трилер
Країна: Франція, Бельгія



Кінокомпанія: Macassar Productions, EuropaCorp, Arte France Cinéma, NJJ Entertainment, Scope Pictures, Canal+, Ciné+
Режисер: Бенуа Жако / Benoît Jacquot
Актори: Ізабель Юппер / Isabelle Huppert, Гаспар Ул'єль / Gaspard Ulliel, Джулія Рой / Julia Roy, Марк Барбе / Marc Barbé, Рішар Беррі / Richard Berry, Дідьє Фламан / Didier Flamand та інші

Сюжет:
Заможний і багатообіцяючий письменник Бертран під час сильної хуртовини опиняється під одним дахом з фатальною куртизанкою Євою. Одержимий пристрастю, він жертвує заради неї своїм багатством, репутацією і навіть тими, хто по-справжньому його любив.
Офіційний український трейлер:


Вікова категорія: 16+
Тривалість: 01:37:35*
Якість: 1080p

Відео:
кодек:
розмір кадру: 1920 х 808
бітрейт: 4622 кб/с
примітка: оригінальний відеоряд
*на початку було обрізано заставку російського дистриб'ютора (10,016 с)

Аудіо:
мова: українська
переклад: професійний дубльований
кодек: 2.0 [стерео]
бітрейт: 192 кб/с

На момент створення релізу оригінальна доріжка була відсутня в мережі
Info
Код:
Complete name               :Eva (2018) [Ukr] 1080p [Hurtom].
Format                      :
Format version              : Version 4 / Version 2
File size                   : 3.28 GiB
Duration                    : 1 h 37 min
Overall bit rate            : 4 816 kb/s
Movie name                  : Єва / Eva (2018) [Ukr] 1080p [Hurtom]
Released date               : 2018
Encoded date                : UTC 2018-07-29 08:45:59
Writing application         : v25.0.0 ('Prog Noir') 64-bit
Writing library             : libebml v1.3.6 + v1.4.9
Cover                       : Yes
Comment                     : http://www.imdb.com/title/tt6414890/
Attachments                 : cover.jpg
DIRECTOR                    : Бенуа Жако / Benoît Jacquot
GENRE                       : трилер, драма, мелодрама
SYNOPSIS                    : Заможний і багатообіцяючий письменник Бертран під час сильної хуртовини опиняється під одним дахом з фатальною куртизанкою Євою. Одержимий пристрастю, він жертвує заради неї своїм багатством, репутацією і навіть тими, хто по-справжньому його любив...
Url                         : https://toloka.to/t93795

Video
ID                          : 1
Format                      : AVC
Format/Info                 : Advanced Video Codec
Format profile              : [email protected]
Format settings             : CABAC / 5 Ref Frames
Format settings, CABAC      : Yes
Format settings, ReFrames   : 5 frames
Codec ID                    : V_MPEG4/ISO/AVC
Duration                    : 1 h 37 min
Bit rate                    : 4 622 kb/s
Width                       : 1 920 pixels
Height                      : 808 pixels
Display aspect ratio        : 2.40:1
Frame rate mode             : Constant
Frame rate                  : 25.000 FPS
Color space                 : YUV
Chroma subsampling          : 4:2:0
Bit depth                   : 8 bits
Scan type                   : Progressive
Bits/(Pixel*Frame)          : 0.119
Stream size                 : 3.15 GiB (96%)
Title                       : Єва / Eva (2018) 1080p [iTunes Rus]
Language                    : French
Default                     : Yes
Forced                      : No
Color range                 : Limited
Color primaries             : BT.709
Transfer characteristics    : BT.709
Matrix coefficients         : BT.709

Audio
ID                          : 2
Format                      : AC-3
Format/Info                 : Audio Coding 3
Codec ID                    : A_AC3
Duration                    : 1 h 37 min
Bit rate mode               : Constant
Bit rate                    : 192 kb/s
Channel(s)                  : 2 channels
Channel positions           : Front: L R
Sampling rate               : 48.0 kHz
Frame rate                  : 31.250 FPS (1536 SPF)
Bit depth                   : 16 bits
Compression mode            : Lossy
Delay relative to video     : 16 ms
Stream size                 : 134 MiB (4%)
Title                       : Dub [Мeгогo] 2.0 192 Kbps
Language                    : Ukrainian
Service kind                : Complete Main
Default                     : Yes
Forced                      : No




Підтримати купівлю інших фільмів можна тут.


Джерело:
Українська доріжка: AngryBirdsUA, Hanway, 11FrYkT.


 Трекер:    Зареєстрований   

Завантажити / скачати фільм українською



відео для новачків



 Зареєстрований:   2018-07-29 11:57
 Розмір:   3.28 GB 
 Оцінка фільму:   3.4/10 (Голосів: 7)
   
Інші релізи
   Єва / Eva (2018) AVC Ukr/Fre 11FrYkT  3 / 0   1.45 GB   2019-01-15 22:26 
   Єва / Eva (2018) 720p Ukr/Fre 11FrYkT  3 / 0   2.48 GB   2019-01-15 21:34 
   Єва / Eva (2018) sokeel  1 / 0   1.38 GB   2018-07-25 15:42 
Ваш часовий пояс: GMT + 2 Години

Нова тема   Відповісти