Тихе місце / A Quiet Place (2018) mini 1080p H.265 Ukr/Eng | Sub Ukr/Eng

Нові коментарі

Нова тема   Відповісти
Автор Повідомлення
ukr_anonymous 
Попереджень: 1
Попереджень: 1 


З нами з: 17.04.18
Востаннє: 18.10.18
Повідомлень: 222

2018-07-29 01:09  
Тихе місце / A Quiet Place (2018) mini 1080p H.265 Ukr/Eng | Sub Ukr/Eng

Тихе місце / A Quiet Place (2018) mini 1080p H.265 Ukr/Eng | Sub Ukr/Eng


Жанр: драма, жахи, трилер
Країна: США



Кінокомпанія: Platinum Dunes, Sunday Night
Режисер: Джон Красінські
Актори: Емілі Блант, Джон Красінські, Ноа Джуп, Міллісент Сіммондс, Леон Рассом, Кейд Вудворд, Доріс МакКарті

Сюжет:
Життя сім’ї фермерів було повною ідилією, допоки вони не стали мішенню для потойбічного зла. В безжальній грі з темрявою є одне правило – не видавати себе жодним звуком. Щойно тебе почують – ти загинеш.


Тривалість: 01:30:14
Якість: mini
Відео:
кодек: H.265 (HEVC)
розмір кадру: 1920 х 800
бітрейт: 4 325 кб/с
бітова глибина: 10 біт
Увага! Перед завантаженням переконайтесь, що ваш пристрій відтворення (та/або ПЗ) підтримує H.265 (HEVC)

Аудіо # 1:
мова: українська
переклад: професійний дубльований
кодек: 5.1
бітрейт: 1 509 кб/с
*Доріжка отримана шляхом накладання ВИРІЗАНИХ українських голосів на оригінальну доріжку

Аудіо # 2:
мова: англійська
переклад: оригінал
кодек: 5.1
бітрейт: 384 кб/с

Субтитри # 1:
мова: українська
тип: програмні (м'які)
формат: *.srt

Субтитри # 2-3:
мова: англійська (Full, SDH)
тип: програмні (м'які)
формат: *.srt
Info
Код:
General
Unique ID                                : 190466268780293622048806887074471010385 (0x8F4A781343F4E3BC3CD138D25832E051)
Complete name                            : E:\Video\A Quiet Place (2018) 1080p H.265 [UKR_ENG].
Format                                   :
Format version                           : Version 4 / Version 2
File size                                : 3.92 GiB
Duration                                 : 1 h 30 min
Overall bit rate                         : 6 221 kb/s
Movie name                               : A Quiet Place (2018)
Encoded date                             : UTC 2018-08-03 07:15:29
Writing application                      : v20.0.0 ('I Am The Sun') 32-bit
Writing library                          : libebml v1.3.5 + v1.4.8
Cover                                    : Yes
Attachments                              : cover

Video
ID                                       : 1
Format                                   : HEVC
Format/Info                              : High Efficiency Video Coding
Format profile                           : Main [email protected]@Main
Codec ID                                 : V_MPEGH/ISO/HEVC
Duration                                 : 1 h 30 min
Bit rate                                 : 4 325 kb/s
Width                                    : 1 920 pixels
Height                                   : 800 pixels
Display aspect ratio                     : 2.40:1
Frame rate mode                          : Constant
Frame rate                               : 23.976 (24000/1001) FPS
Color space                              : YUV
Chroma subsampling                       : 4:2:0
Bit depth                                : 10 bits
Bits/(Pixel*Frame)                       : 0.117
Stream size                              : 2.73 GiB (70%)
Writing library                          : x265 2.8+19-bcdc610cf5f0:[Windows][GCC 7.3.0][64 bit] 10bit
Encoding settings                        : cpuid=1111039 / frame-threads=3 / numa-pools=8 / wpp / no-pmode / no-pme / no-psnr / no-ssim / log-level=2 / input-csp=1 / input-res=1920x800 / interlace=0 / total-frames=129828 / level-idc=0 / high-tier=1 / uhd-bd=0 / ref=4 / no-allow-non-conformance / no-repeat-headers / annexb / no-aud / no-hrd / info / hash=0 / no-temporal-layers / open-gop / min-keyint=23 / keyint=250 / gop-lookahead=0 / bframes=4 / b-adapt=2 / b-pyramid / bframe-bias=0 / rc-lookahead=25 / lookahead-slices=4 / scenecut=40 / radl=0 / no-intra-refresh / ctu=64 / min-cu-size=8 / rect / no-amp / max-tu-size=32 / tu-inter-depth=1 / tu-intra-depth=1 / limit-tu=0 / rdoq-level=2 / dynamic-rd=0.00 / no-ssim-rd / signhide / no-tskip / nr-intra=0 / nr-inter=0 / no-constrained-intra / strong-intra-smoothing / max-merge=3 / limit-refs=3 / limit-modes / me=3 / subme=3 / merange=57 / temporal-mvp / weightp / no-weightb / no-analyze-src-pics / deblock=0:0 / sao / no-sao-non-deblock / rd=4 / no-early-skip / rskip / no-fast-intra / no-tskip-fast / no-cu-lossless / no-b-intra / no-splitrd-skip / rdpenalty=0 / psy-rd=2.00 / psy-rdoq=1.00 / no-rd-refine / no-lossless / cbqpoffs=0 / crqpoffs=0 / rc=abr / bitrate=4326 / qcomp=0.60 / qpstep=4 / stats-write=0 / stats-read=2 / cplxblur=20.0 / qblur=0.5 / ipratio=1.40 / pbratio=1.30 / aq-mode=3 / aq-strength=1.00 / cutree / zone-count=0 / no-strict-cbr / qg-size=32 / no-rc-grain / qpmax=69 / qpmin=0 / no-const-vbv / sar=0 / overscan=0 / videoformat=5 / range=0 / colorprim=2 / transfer=2 / colormatrix=2 / chromaloc=0 / display-window=0 / max-cll=0,0 / min-luma=0 / max-luma=1023 / log2-max-poc-lsb=8 / vui-timing-info / vui-hrd-info / slices=1 / no-opt-qp-pps / no-opt-ref-list-length-pps / multi-pass-opt-rps / scenecut-bias=0.05 / no-opt-cu-delta-qp / aq-motion / no-hdr / no-hdr-opt / no-dhdr10-opt / no-idr-recovery-sei / analysis-reuse-level=5 / scale-factor=0 / refine-intra=0 / refine-inter=0 / refine-mv=0 / no-limit-sao / ctu-info=0 / no-lowpass-dct / refine-mv-type=0 / copy-pic=1 / max-ausize-factor=1.0 / no-dynamic-refine / no-single-sei
Default                                  : Yes
Forced                                   : No

Audio #1
ID                                       : 2
Format                                   :
Format/Info                              : Digital Theater Systems
Codec ID                                 : A_DTS
Duration                                 : 1 h 30 min
Bit rate mode                            : Constant
Bit rate                                 : 1 509 kb/s
Channel(s)                               : 6 channels
Channel positions                        : Front: L C R, Side: L R, LFE
Sampling rate                            : 48.0 kHz
Frame rate                               : 93.750 FPS (512 SPF)
Bit depth                                : 24 bits
Compression mode                         : Lossy
Stream size                              : 974 MiB (24%)
Title                                    : 5.1
Language                                 : Ukrainian
Default                                  : Yes
Forced                                   : Yes

Audio #2
ID                                       : 3
Format                                   : AC-3
Format/Info                              : Audio Coding 3
Codec ID                                 : A_AC3
Duration                                 : 1 h 30 min
Bit rate mode                            : Constant
Bit rate                                 : 384 kb/s
Channel(s)                               : 6 channels
Channel positions                        : Front: L C R, Side: L R, LFE
Sampling rate                            : 48.0 kHz
Frame rate                               : 31.250 FPS (1536 SPF)
Bit depth                                : 16 bits
Compression mode                         : Lossy
Stream size                              : 248 MiB (6%)
Title                                    : 5.1 @ 384 kbps
Language                                 : English
Service kind                             : Complete Main
Default                                  : No
Forced                                   : No

Text #1
ID                                       : 4
Format                                   : UTF-8
Codec ID                                 : S_TEXT/UTF8
Codec ID/Info                            : UTF-8 Plain Text
Duration                                 : 1 h 19 min
Bit rate                                 : 9 b/s
Count of elements                        : 138
Stream size                              : 5.29 KiB (0%)
Title                                    : Forced
Language                                 : Ukrainian
Default                                  : Yes
Forced                                   : Yes

Text #2
ID                                       : 5
Format                                   : UTF-8
Codec ID                                 : S_TEXT/UTF8
Codec ID/Info                            : UTF-8 Plain Text
Duration                                 : 1 h 11 min
Bit rate                                 : 5 b/s
Count of elements                        : 168
Stream size                              : 2.94 KiB (0%)
Title                                    : Full
Language                                 : English
Default                                  : No
Forced                                   : No

Text #3
ID                                       : 6
Format                                   : UTF-8
Codec ID                                 : S_TEXT/UTF8
Codec ID/Info                            : UTF-8 Plain Text
Duration                                 : 1 h 22 min
Bit rate                                 : 9 b/s
Count of elements                        : 340
Stream size                              : 5.61 KiB (0%)
Title                                    : SDH
Language                                 : English
Default                                  : No
Forced                                   : No

Menu
00:00:00.000                             : en:00:00:00.000
00:10:19.160                             : en:00:10:19.160
00:14:38.044                             : en:00:14:38.044
00:21:52.937                             : en:00:21:52.937
00:25:09.717                             : en:00:25:09.717
00:31:05.197                             : en:00:31:05.197
00:36:23.431                             : en:00:36:23.431
00:43:47.333                             : en:00:43:47.333
00:47:42.735                             : en:00:47:42.735
00:53:48.225                             : en:00:53:48.225
01:00:31.461                             : en:01:00:31.461
01:05:55.410                             : en:01:05:55.410
01:10:57.879                             : en:01:10:57.879
01:15:29.150                             : en:01:15:29.150
01:23:47.314                             : en:01:23:47.314
Скріншоти



Джерело:
Особиста оцінка: 0 - не дивився

ЗАЛИШАЙТЕСЬ ЯКОМОГА ДОВШЕ НА РОЗДАЧІ!
ЗАВАНТАЖИВ САМ - ДАЙ ЗАВАНТАЖИТИ ІНШИМ

03.08.2018 - Замінив доріжку на 5.1


 Трекер:    Зареєстрований   

Завантажити / скачати фільм українською



відео для новачків



 Зареєстрований:   2018-08-03 10:20
 Розмір:   3.92 GB 
 Оцінка фільму:   9.8/10 (Голосів: 6)
   
Інші релізи
   Тихе місце / A Quiet Place (2018) Remux 1080p Ukr/Eng | Sub Ukr/Eng -_-В_E_N_D_Е_R-_-  3 / 0   20.06 GB   2018-08-01 17:55 
   Тихе місце / A Quiet Place (2018) 1080p Ukr/Eng | Sub Ukr/Eng staf777  22 / 0   11.09 GB   2018-07-13 00:24 
   Тихе місце / A Quiet Place (2018) Remux 1080p Ukr/Eng | Sub Ukr/Eng staf777  6 / 0   17.94 GB   2018-07-12 23:18 
   Тихе місце / A Quiet Place (2018) 720p Ukr/Eng | Sub Ukr/Eng 11FrYkT  43 / 0   4.18 GB   2018-07-12 21:08 
   Тихе місце / A Quiet Place (2018) AVC Ukr/Eng | Sub Ukr/Eng 11FrYkT  92 / 4   1.45 GB   2018-07-12 21:06 
   Тихе місце / A Quiet Place (2018) Eng | sub Ukr FAELIT  19 / 4   1.45 GB   2018-06-27 16:32 
-_-В_E_N_D_Е_R-_- 
Забанено
Забанено


З нами з: 11.07.18
Востаннє: 23.08.18
Повідомлень: 547

2018-07-29 01:24  
Можливо вже хтось зробить нормальну укр доріжку?
ukr_anonymous 
Попереджень: 1
Попереджень: 1 


З нами з: 17.04.18
Востаннє: 18.10.18
Повідомлень: 222

2018-07-29 01:43  
-_-В_E_N_D_Е_R-_-
А що з цією не так?)

-_-В_E_N_D_Е_R-_- 
Забанено
Забанено


З нами з: 11.07.18
Востаннє: 23.08.18
Повідомлень: 547

2018-07-29 01:59  
Тут не стільки багато говорять
ukr_anonymous написано:
Count of elements : 138

То ж зробити звук в 5,1 або 7.1 не дуже складно

Vicarious 
Новенький


З нами з: 09.01.18
Востаннє: 18.10.18
Повідомлень: 19

2018-07-29 11:43  
-_-В_E_N_D_Е_R-_-

Якшо не складно, то чому ж не зробити це самому?

-_-В_E_N_D_Е_R-_- 
Забанено
Забанено


З нами з: 11.07.18
Востаннє: 23.08.18
Повідомлень: 547

2018-07-29 12:24  
Vicarious
Тому що я і без того маю чим зайнятися

Vicarious 
Новенький


З нами з: 09.01.18
Востаннє: 18.10.18
Повідомлень: 19

2018-07-29 15:07  
-_-В_E_N_D_Е_R-_-

а типу більше ніхто нічого не робить і має виконувати ваші захцянки!

-_-В_E_N_D_Е_R-_- 
Забанено
Забанено


З нами з: 11.07.18
Востаннє: 23.08.18
Повідомлень: 547

2018-07-29 15:13  
Vicarious
Так

11FrYkT 
Модератор відео


З нами з: 20.02.11
Востаннє: 18.10.18
Повідомлень: 5080

2018-08-02 22:40  
ukr_anonymous написано:

кодек: -HD MA 7.1
бітрейт: 3 542 кб/с

такі доріжки в таке відео не пхають, у Вас доріжка важить майже скільки як відео, поставте 1536

ukr_anonymous 
Попереджень: 1
Попереджень: 1 


З нами з: 17.04.18
Востаннє: 18.10.18
Повідомлень: 222

2018-08-02 22:48  
11FrYkT
Як її перекодувати?

-_-В_E_N_D_Е_R-_- 
Забанено
Забанено


З нами з: 11.07.18
Востаннє: 23.08.18
Повідомлень: 547

2018-08-02 23:17  
ukr_anonymous

ukr_anonymous 
Попереджень: 1
Попереджень: 1 


З нами з: 17.04.18
Востаннє: 18.10.18
Повідомлень: 222

2018-08-03 11:41  
-_-В_E_N_D_Е_R-_-
Дякую!

Fogich 
Новенький


З нами з: 20.10.16
Востаннє: 17.10.18
Повідомлень: 24

2018-08-06 22:02  
Хороше кіно. Сподобалось!)
Ваш часовий пояс: GMT + 2 Години

Нова тема   Відповісти