ТернопільРОК (2018)

Нові коментарі

Нова тема   Відповісти
Останній раз роздавалося igor270 (2019-12-08)
Автор Повідомлення
vasily.mizyuk 
Новенький


З нами з: 31.05.16
Востаннє: 22.11.20
Повідомлень: 3

2018-07-28 22:51  
ТернопільРОК (2018)

ТернопільРОК (2018)


Жанр: документальний, музичний
Країна: Україна

Режисер: Василь Мізюк / Андрій Кулян
Актори: Коля Птіца, Зорян Безкоровайний, Ростік Фук, Віталік Сун, Юрко Зелений, Сергій Бучинський, Василь Протасевич

Сюжет:
Це відео - спроба розібратись в історії неформальних тусовок починаючи з кінця 80-х років. В головних ролях очевидці і самі творці рок-руху Тернополя тодішніх часів і сучасності.


Тривалість: 01:08:00
Якість: 1080p
Відео:
кодек:
розмір кадру: 1920 х 1080
бітрейт: 9874кб/с

Аудіо:
мова: українська
переклад: оригінал
кодек: 2.0
бітрейт: 192 кб/с
Скріншоти






Медіаінфо
General
Complete name : /Users/vasilymizyuk/Movies/Torrent videos/ТернопільРОК.mp4
Format : MPEG-4
Format profile : Base Media / Version 2
Codec ID : mp42
File size : 4.69 GiB
Duration : 1h 8mn
Overall bit rate mode : Variable
Overall bit rate : 9 874 Kbps
Encoded date : UTC 2018-04-14 02:31:37
Tagged date : UTC 2018-04-14 02:33:24
©TIM : 00;00;00;00
©TSC : 30000
©TSZ : 1001

Video
ID : 1
Format : AVC
Format/Info : Advanced Video Codec
Format profile : [email protected]
Format settings, CABAC : Yes
Format settings, ReFrames : 3 frames
Codec ID : avc1
Codec ID/Info : Advanced Video Coding
Duration : 1h 8mn
Bit rate : 9 680 Kbps
Width : 1 920 pixels
Height : 1 080 pixels
Display aspect ratio : 16:9
Frame rate mode : Constant
Frame rate : 29.970 fps
Standard : NTSC
Color space : YUV
Chroma subsampling : 4:2:0
Bit depth : 8 bits
Scan type : Progressive
Bits/(Pixel*Frame) : 0.156
Stream size : 4.60 GiB (98%)
Language : English
Encoded date : UTC 2018-04-14 02:31:37
Tagged date : UTC 2018-04-14 02:31:37
Color primaries : BT.709
Transfer characteristics : BT.709
Matrix coefficients : BT.709

Audio
ID : 2
Format :
Format/Info : Advanced Audio Codec
Format profile : LC
Codec ID : 40
Duration : 1h 8mn
Source duration : 1h 8mn
Bit rate mode : Variable
Bit rate : 192 Kbps
Maximum bit rate : 298 Kbps
Channel(s) : 2 channels
Channel positions : Front: L R
Sampling rate : 48.0 KHz
Compression mode : Lossy
Stream size : 92.1 MiB (2%)
Source stream size : 92.1 MiB (2%)
Language : English
Encoded date : UTC 2018-04-14 02:31:37
Tagged date : UTC 2018-04-14 02:31:37
Джерело: &


 Трекер:    Зареєстрований   

Завантажити / скачати український фільм



відео для новачків



 Зареєстрований:   2018-07-28 22:51
 Розмір:   4.69 GB 
 Оцінка:   9/10 (Голосів: 3)
   
11FrYkT 
Модератор відео


З нами з: 20.02.11
Востаннє: 24.11.20
Повідомлень: 7031

2018-07-30 09:02  
vasily.mizyuk написано:

по ТБ крутили?
Додайте звіт Медіаінфо, також
vasily.mizyuk написано:

розмір кадру: 1920 х 1080
бітрейт: 9874кб/с

думаю що не вірно вказано

vasily.mizyuk 
Новенький


З нами з: 31.05.16
Востаннє: 22.11.20
Повідомлень: 3

2018-07-30 22:25  
11FrYkT написано:
11FrYkT

По ТБ не крутили, з DVD не Ripилось.
Звіт медіаінфо додано.

11FrYkT 
Модератор відео


З нами з: 20.02.11
Востаннє: 24.11.20
Повідомлень: 7031

2018-07-31 21:24  
vasily.mizyuk написано:
По ТБ не крутили, з DVD не Ripилось.

я знаю, це був Вам натяк що якість вказана не вірно, також тоді у Вас скріноти не відповідають вказаному розміру

Electroz 
Відео Гуртом - підтримка та поширення
Відео Гуртом - підтримка та поширення


З нами з: 18.09.14
Востаннє: 25.11.20
Повідомлень: 4211

2018-07-31 22:50  
vasily.mizyuk
Вкажіть у заголовку якість 1080p і посилання на ютуб нижче

Код:
[youtube]https://youtube.com/watch?v=DggKOmri_NA[/youtube]

Ваш часовий пояс: GMT + 2 Години

Нова тема   Відповісти