Вбивці / Kill Theory (2008) AVC Ukr/Eng | Sub Eng

Нові коментарі

Нова тема   Відповісти
Автор Повідомлення
staf777 
Відео Гуртом - підтримка та поширення
Відео Гуртом - підтримка та поширення


З нами з: 16.11.16
Востаннє: 15.12.19
Повідомлень: 3073

2018-07-28 18:23  
Вбивці / Kill Theory (2008) AVC Ukr/Eng | Sub Eng

Вбивці / Kill Theory (2008) AVC Ukr/Eng | Sub Eng


Жанр: трилер, жахи
Країна: США



Кінокомпанія: BenderSpink, Cross River Pictures, Element Films
Режисер: Кріс Мур / Chris Moore
Актори: Аґнес Брукнер / Agnes Bruckner, Патрік Флюгер / Patrick Flueger, Тедді Данн / Teddy Dunn, Терін Меннінґ / Taryn Manning, Тео Россі / Theo Rossi, Деніел Френзісі / Daniel Franzese

Сюжет:
Компанія друзів-студентів вирушає в невеликий готель, щоб відсвяткувати закінчення коледжу, але потрапляє в пастку маніяка-вбивці.
До 6-ї ранку наступного дня тільки один з них залишиться в живих, але якщо більш ніж один з них буде жити, то помруть усі. Тому кожен повинен стати вбивцею, щоб вижити.


Тривалість: 01:25:14
Якість: AVC
Відео:
кодек:
розмір кадру: 1024x552
бітрейт: 2761 кб/с

Аудіо # 1:
мова: українська
переклад: багатоголосий закадровий ТакТреба Продакшн на замовлення Аврора Дистриб'юшн
кодек: 5.1
бітрейт: 384 кб/с

Аудіо # 2:
мова: англійська
переклад: оригінал
кодек: 5.1
бітрейт: 448 кб/с

Субтитри:
мова: англійська
тип: програмні (м'які)
формат: *.srt
Info
General
Unique ID : 254463627982820084388122574640966477270 (0xBF6FE97EA95EDF14E7C7E6ADB15725D6)
Complete name : G:\Майбутні релізи\Kill Theory (2008) AVC [UKR_ENG] [Hurtom].
Format :
Format version : Version 4 / Version 2
File size : 2.14 GiB
Duration : 1 h 25 min
Overall bit rate : 3 591 kb/s
Movie name : Kill Theory (2008) AVC [UKR_ENG] [Hurtom]
Encoded date : UTC 2018-07-29 14:53:34
Writing application : v24.0.0 ('Beyond The Pale') 64-bit
Writing library : libebml v1.3.6 + v1.4.9
Cover : Yes
Attachments : cover.jpg

Video
ID : 1
Format : AVC
Format/Info : Advanced Video Codec
Format profile : [email protected]
Format settings : CABAC / 11 Ref Frames
Format settings, CABAC : Yes
Format settings, ReFrames : 11 frames
Codec ID : V_MPEG4/ISO/AVC
Duration : 1 h 25 min
Bit rate : 2 761 kb/s
Width : 1 024 pixels
Height : 552 pixels
Display aspect ratio : 1.85:1
Frame rate mode : Constant
Frame rate : 23.976 (24000/1001) FPS
Color space : YUV
Chroma subsampling : 4:2:0
Bit depth : 8 bits
Scan type : Progressive
Bits/(Pixel*Frame) : 0.204
Stream size : 1.64 GiB (77%)
Writing library : core 146 r2538 121396c
Encoding settings : cabac=1 / ref=11 / deblock=1:-3:-3 / analyse=0x3:0x133 / me=umh / subme=10 / psy=1 / psy_rd=1.00:0.10 / mixed_ref=1 / me_range=32 / chroma_me=1 / trellis=2 / 8x8dct=1 / cqm=0 / deadzone=21,11 / fast_pskip=0 / chroma_qp_offset=-3 / threads=12 / lookahead_threads=3 / sliced_threads=0 / nr=0 / decimate=1 / interlaced=0 / bluray_compat=0 / constrained_intra=0 / bframes=10 / b_pyramid=2 / b_adapt=2 / b_bias=0 / direct=3 / weightb=1 / open_gop=0 / weightp=2 / keyint=240 / keyint_min=23 / scenecut=40 / intra_refresh=0 / rc=2pass / mbtree=0 / bitrate=2761 / ratetol=1.0 / qcomp=0.60 / qpmin=0 / qpmax=69 / qpstep=4 / cplxblur=20.0 / qblur=0.5 / ip_ratio=1.40 / pb_ratio=1.30 / aq=3:0.90
Language : English
Default : Yes
Forced : No

Audio #1
ID : 2
Format : AC-3
Format/Info : Audio Coding 3
Codec ID : A_AC3
Duration : 1 h 25 min
Bit rate mode : Constant
Bit rate : 384 kb/s
Channel(s) : 6 channels
Channel positions : Front: L C R, Side: L R, LFE
Sampling rate : 48.0 kHz
Frame rate : 31.250 FPS (1536 SPF)
Bit depth : 16 bits
Compression mode : Lossy
Stream size : 234 MiB (11%)
Title : ТакТреба Продакшн
Language : Ukrainian
Service kind : Complete Main
Default : Yes
Forced : Yes

Audio #2
ID : 3
Format : AC-3
Format/Info : Audio Coding 3
Codec ID : A_AC3
Duration : 1 h 25 min
Bit rate mode : Constant
Bit rate : 448 kb/s
Channel(s) : 6 channels
Channel positions : Front: L C R, Side: L R, LFE
Sampling rate : 48.0 kHz
Frame rate : 31.250 FPS (1536 SPF)
Bit depth : 16 bits
Compression mode : Lossy
Stream size : 273 MiB (12%)
Language : English
Service kind : Complete Main
Default : No
Forced : No

Text
ID : 4
Format : UTF-8
Codec ID : S_TEXT/UTF8
Codec ID/Info : UTF-8 Plain Text
Duration : 1 h 17 min
Bit rate : 66 b/s
Count of elements : 1018
Stream size : 37.9 KiB (0%)
Language : English
Default : No
Forced : No

Menu
00:00:00.000 : :Chapter 01
00:08:09.322 : :Chapter 02
00:16:17.185 : :Chapter 03
00:22:37.565 : :Chapter 04
00:27:55.424 : :Chapter 05
00:33:20.332 : :Chapter 06
00:38:17.921 : :Chapter 07
00:47:00.359 : :Chapter 08
00:55:40.963 : :Chapter 09
01:02:34.668 : :Chapter 10
01:10:51.831 : :Chapter 11
01:18:08.934 : :Chapter 12
Скріншоти



Запис з ТБ akon111, dvorsky і urij546724 синхронізація Lan
Джерело: &
Особиста оцінка: 8 - мені сподобалося


 Трекер:    Зареєстрований   

Завантажити / скачати фільм українською



відео для новачків



 Зареєстрований:   2018-07-29 19:02
 Розмір:   2.14 GB 
 Оцінка фільму:   8.5/10 (Голосів: 6)
   
Інші релізи
   Вбивці / Kill Theory (2008) 720p Ukr/Eng | Sub Eng staf777  2 / 0   5.07 GB   2018-07-28 17:46 
   Вбивці / Kill Theory (2008) Ukr/Eng | Sub Eng Lan  1 / 1   1.69 GB   2012-03-29 18:00 
bot 
робот


З нами з: 30.09.07
Востаннє: 26.05.05
Повідомлень: 22658

2018-07-29 19:02  
Тему перенесено з Анонси релізів до форуму Фільми


staf777

Ваш часовий пояс: GMT + 2 Години

Нова тема   Відповісти