Знайти Форрестера / Finding Forrester (2000) AVC Ukr/Eng | Sub Eng

Нові коментарі

Нова тема   Відповісти
Автор Повідомлення
staf777 
Відео Гуртом - підтримка та поширення
Відео Гуртом - підтримка та поширення


З нами з: 16.11.16
Востаннє: 30.09.20
Повідомлень: 4077

2018-07-28 09:45  
Знайти Форрестера / Finding Forrester (2000) AVC Ukr/Eng | Sub Eng

Знайти Форрестера / Finding Forrester (2000) AVC Ukr/Eng | Sub Eng
Оригінальна обкладинка:



Жанр: драма
Країна: США



Кінокомпанія: Columbia Pictures Corporation
Режисер: Ґас Ван Сент (Gus Van Sant)
Актори: Шон Коннері (Sean Connery), Роб Браун (Rob Brown), Ф. Мюррей Абрахам (F. Murray Abraham), Анна Паквін (Anna Paquin), Баста Раймс (Busta Rhymes), Ейпріл Ґрейс (April Grace) та інші.

Сюжет:
Письменник Вільям Форрестер довгі роки прожив у добровільному самітництві від світу. Останній раз про нього чули сорок років тому, коли світ побачив його чудовий роман, що завоював Пулітцерівську премію. Але з тих пір нікому не вдалося переступити за поріг будинку цього письменника. Однак 16-літньому парубкові на ім'я Джамал Воллес вдається проникнути в житло живої легенди й розговорити відлюдного старця. І ця випадкова зустріч виявляється доленосною. Завдяки їй замкнутий у собі Форрестер знову знаходить смак до життя за межами своєї "вежі зі слоновой кістки". А Джамал, талановитий баскетболіст, якому світить блискуча спортивна кар`єра, відкриває, що його щире покликання це - літературна творчість...


Тривалість: 02:16:10
Якість:
Відео:
кодек:
розмір кадру: 1024x436
бітрейт: 2160 кб/с

Аудіо # 1:
мова: українська
переклад: багатоголосий закадровий | "ТакТребаПродакшн"
кодек: 5.1
бітрейт: 448 кб/с

Аудіо # 2:
мова: англійська
переклад: оригінал
кодек: 5.1
бітрейт: 448 кб/с

Субтитри:
мова: англійська
тип: програмні (м'які)
формат: *.srt
MI
General
Unique ID : 286101505550547302590195466172414816625 (0xD73D254A758D2A42E6C7D56ED89BF171)
Complete name : G:\Майбутні релізи\Finding Forrester (2000)AVC [UKR_ENG] [Hurtom] .
Format :
Format version : Version 4 / Version 2
File size : 2.91 GiB
Duration : 2 h 16 min
Overall bit rate : 3 058 kb/s
Movie name : Finding Forrester (2000)AVC [UKR_ENG] [Hurtom]
Encoded date : UTC 2018-07-28 06:12:03
Writing application : v24.0.0 ('Beyond The Pale') 64-bit
Writing library : libebml v1.3.6 + v1.4.9
Cover : Yes
Attachments : cover.jpg

Video
ID : 1
Format : AVC
Format/Info : Advanced Video Codec
Format profile : [email protected]
Format settings : CABAC / 10 Ref Frames
Format settings, CABAC : Yes
Format settings, ReFrames : 10 frames
Codec ID : V_MPEG4/ISO/AVC
Duration : 2 h 16 min
Bit rate : 2 160 kb/s
Width : 1 024 pixels
Height : 436 pixels
Display aspect ratio : 2.35:1
Frame rate mode : Constant
Frame rate : 23.976 (24000/1001) FPS
Color space : YUV
Chroma subsampling : 4:2:0
Bit depth : 8 bits
Scan type : Progressive
Bits/(Pixel*Frame) : 0.202
Stream size : 2.05 GiB (71%)
Title : potroks
Writing library : core 155 r2901M 7d0ff22
Encoding settings : cabac=1 / ref=10 / deblock=1:-2:-2 / analyse=0x3:0x133 / me=umh / subme=11 / psy=1 / psy_rd=0.96:0.00 / mixed_ref=1 / me_range=48 / chroma_me=1 / trellis=2 / 8x8dct=1 / cqm=0 / deadzone=21,11 / fast_pskip=0 / chroma_qp_offset=-2 / threads=9 / lookahead_threads=2 / sliced_threads=0 / nr=0 / decimate=0 / interlaced=0 / bluray_compat=0 / constrained_intra=0 / bframes=11 / b_pyramid=2 / b_adapt=2 / b_bias=0 / direct=3 / weightb=1 / open_gop=0 / weightp=2 / keyint=240 / keyint_min=23 / scenecut=40 / intra_refresh=0 / rc_lookahead=100 / rc=2pass / mbtree=0 / bitrate=2160 / ratetol=1.0 / qcomp=0.70 / qpmin=0 / qpmax=69 / qpstep=4 / cplxblur=20.0 / qblur=0.5 / vbv_maxrate=50000 / vbv_bufsize=50000 / nal_hrd=none / filler=0 / ip_ratio=1.40 / pb_ratio=1.30 / aq=2:0.80
Language : English
Default : Yes
Forced : No
Color range : Limited
Color primaries : BT.709
Transfer characteristics : BT.709
Matrix coefficients : BT.709

Audio #1
ID : 2
Format : AC-3
Format/Info : Audio Coding 3
Codec ID : A_AC3
Duration : 2 h 16 min
Bit rate mode : Constant
Bit rate : 448 kb/s
Channel(s) : 6 channels
Channel positions : Front: L C R, Side: L R, LFE
Sampling rate : 48.0 kHz
Frame rate : 31.250 FPS (1536 SPF)
Bit depth : 16 bits
Compression mode : Lossy
Stream size : 436 MiB (15%)
Title : "ТакТребаПродакшн"
Language : Ukrainian
Service kind : Complete Main
Default : Yes
Forced : Yes

Audio #2
ID : 3
Format : AC-3
Format/Info : Audio Coding 3
Codec ID : A_AC3
Duration : 2 h 16 min
Bit rate mode : Constant
Bit rate : 448 kb/s
Channel(s) : 6 channels
Channel positions : Front: L C R, Side: L R, LFE
Sampling rate : 48.0 kHz
Frame rate : 31.250 FPS (1536 SPF)
Bit depth : 16 bits
Compression mode : Lossy
Stream size : 436 MiB (15%)
Title : Original | DD 5.1 @ 448 kbps
Language : English
Service kind : Complete Main
Default : No
Forced : No

Text
ID : 4
Format : UTF-8
Codec ID : S_TEXT/UTF8
Codec ID/Info : UTF-8 Plain Text
Duration : 2 h 14 min
Bit rate : 58 b/s
Count of elements : 1546
Stream size : 57.6 KiB (0%)
Title : SDH
Language : English
Default : No
Forced : No

Menu
00:00:00.000 : :(01)00:00:00:000
00:16:14.306 : :(02)00:16:14:306
00:31:39.980 : :(03)00:31:39:980
00:48:34.369 : :(04)00:48:34:369
01:10:33.228 : :(05)01:10:33:228
01:29:05.421 : :(06)01:29:05:421
01:45:56.015 : :(07)01:45:56:015
02:05:52.377 : :(08)02:05:52:377
Скріншоти





Джерело: & &
Українська доріжка - robotron005, постер - Ermolenko.
Особиста оцінка: 9 - давно не бачив настільки якісне кіно


Срібний реліз (на рейтинг впливає 50% завантаженого)
 Трекер:    Зареєстрований   

Завантажити / скачати фільм українською



відео для новачків



 Зареєстрований:   2018-07-28 09:45
 Розмір:   2.91 GB 
 Оцінка фільму:   8.5/10 (Голосів: 14)
   
Інші релізи
Drakoshka 
Localize Team
Localize Team


З нами з: 12.01.13
Востаннє: 28.09.20
Повідомлень: 122

2018-07-28 15:52  
Виглядає як шось круте, дякую, гляну!
Ваш часовий пояс: GMT + 2 Години

Нова тема   Відповісти