Світ Юрського періоду 2 / Jurassic World: Fallen Kingdom (2018) 720p Ukr/Eng | Sub Eng

Нові коментарі

Нова тема   Відповісти
Автор Повідомлення
Anonymous 







2018-07-27 21:27  
Світ Юрського періоду 2 / Jurassic World: Fallen Kingdom (2018) 720p Ukr/Eng | Sub Eng

Світ Юрського періоду 2 / Jurassic World: Fallen Kingdom (2018) 720p Ukr/Eng | Sub Eng
Альтернативний постер:



Жанр: бойовик, фантастика, пригодницький
Країна: США, Іспанія



Кінокомпанія: Universal Pictures, Apaches Entertainment, Amblin Entertainment, Legendary Picture
Режисер: Хуан Антоніо Байона / J.A. Bayona
Актори: Кріс Пратт / Chris Pratt, Брайс Даллас Говард / Bryce Dallas Howard, Тед Левайн / Ted Levine, Джефф Голдблюм / Jeff Goldblum, Тобі Джонс / Toby Jones, Джеймс Кромвелл / James Cromwell, Б.Д. Вонг / BD Wong, Рейф Сполл / Rafe Spall, Даніелла Пінеда / Daniella Pineda, Джастіс Сміт / Justice Smith та інші

Сюжет:
Культова сага продовжується! Залишившись на уламках унікального парку розваг, динозаври відчули себе господарями, немов у доісторичні часи. Але раптове виверження древнього вулкана на зловісному острові Нублар ставить під загрозу існування не лише ящерів, а й усієї планети. Люди, які прибувають на острів, щоб взяти ситуацію під контроль, опиняються у смертельній пастці між потоками розжареної лави та розлюченими гігантськими динозаврами.
Офіційні українські трейлери:




Рейтинг MPAA: PG-13 - дітям до 13 років перегляд не бажаний
Вікова категорія: 12+

Тривалість: 02:08:17
Якість: 720p [HDChina]
Відео:
кодек:
розмір кадру: 1280 х 536
бітрейт: 5500 кб/с

Аудіо # 1:
мова: українська
переклад: професійний дубльований | студія LeDoyen
кодек: 2.0 [стерео]
бітрейт: 192 кб/с
Інформація про дубляж
Переклад: Федір Сидорук
Режисер дубляжу: Анна Пащенко
Звукорежисер: Альона Шиманович
Звукорежисер перезапису: Олег Кульчицький
Координатор дубляжу: Ольга Боєва
Ролі дублювали: Наталя Романько, Володимир Заєць, Валентин Музиченко, Роман Чупіс, Ксенія Лук'яненко, Ольга Греськова, Максим Кондратюк, Костянтин Лінартович, Юрій Висоцький, Ігор Рода, Валентина Гришокіна та інші.

Фільм надано компанією Universal, дубльовано та зміксовано студією LeDoyen на замовлення компанії B&H Film Distribution.
Аудіо # 2:
мова: англійська
переклад: оригінал
кодек: 5.1
бітрейт: 640 кб/с

Субтитри # 1-2:
мова: англійська (повні, SDH)
тип: програмні (м'які)
формат: *.srt

Субтитри # 3:
мова: англійська (SDH)
тип: пререндерні
формат: *.pgs

Збережено оригінальні розділи, як на Blu-ray
Info та log
Код:
Complete name               : Jurassic World 2 Fallen Kingdom (2018) [Ukr,Eng sub.Eng] 720p [Hurtom].
Format                      :
Format version              : Version 4
File size                   : 5.69 GiB
Duration                    : 2 h 8 min
Overall bit rate            : 6 346 kb/s
Movie name                  : Світ Юрського періоду 2 / Jurassic World: Fallen Kingdom (2018) [Ukr,Eng sub.Eng] 720p [Hurtom]
Released date               : 2018
Encoded date                : UTC 2018-09-08 18:15:06
Writing application         : v26.0.0 ('In The Game') 64-bit
Writing library             : libebml v1.3.6 + v1.4.9
Cover                       : Yes
Comment                     : https://www.imdb.com/title/tt4881806/
Attachments                 : cover.jpg
DIRECTOR                    : Хуан Антоніо Байона / J.A. Bayona
GENRE                       : бойовик, фантастика, пригодницький
SYNOPSIS                    : Культова сага продовжується! Залишившись на уламках унікального парку розваг, динозаври відчули себе господарями, немов у доісторичні часи. Але раптове виверження древнього вулкана на зловісному острові Нублар ставить під загрозу існування не лише ящерів, а й усієї планети. Люди, які прибувають на острів, щоб взяти ситуацію під контроль, опиняються у смертельній пастці між потоками розжареної лави та розлюченими гігантськими динозаврами...
Url                         : https://toloka.to/t93767

Video
ID                          : 1
Format                      : AVC
Format/Info                 : Advanced Video Codec
Format profile              : [email protected]
Format settings             : CABAC / 12 Ref Frames
Format settings, CABAC      : Yes
Format settings, ReFrames   : 12 frames
Codec ID                    : V_MPEG4/ISO/AVC
Duration                    : 2 h 8 min
Bit rate                    : 5 500 kb/s
Width                       : 1 280 pixels
Height                      : 536 pixels
Display aspect ratio        : 2.40:1
Frame rate mode             : Constant
Frame rate                  : 23.976 (24000/1001) FPS
Color space                 : YUV
Chroma subsampling          : 4:2:0
Bit depth                   : 8 bits
Scan type                   : Progressive
Bits/(Pixel*Frame)          : 0.334
Stream size                 : 4.93 GiB (87%)
Title                       : Світ Юрського періоду 2 / Jurassic World: Fallen Kingdom (2018) 720p [HDChina]
Writing library             : core 148 r2665kMod a01e339
Encoding settings           : cabac=1 / ref=12 / deblock=1:-3:-3 / analyse=0x3:0x133 / me=umh / subme=11 / psy=1 / fade_compensate=0.00 / psy_rd=1.05:0.00 / mixed_ref=1 / me_range=32 / chroma_me=1 / trellis=2 / 8x8dct=1 / cqm=0 / deadzone=21,11 / fast_pskip=0 / chroma_qp_offset=-2 / threads=17 / lookahead_threads=2 / sliced_threads=0 / nr=0 / decimate=0 / interlaced=0 / bluray_compat=0 / constrained_intra=0 / fgo=0 / bframes=8 / b_pyramid=2 / b_adapt=2 / b_bias=0 / direct=3 / weightb=1 / open_gop=0 / weightp=2 / keyint=240 / keyint_min=24 / scenecut=40 / intra_refresh=0 / rc=2pass / mbtree=0 / bitrate=5500 / ratetol=1.0 / qcomp=0.70 / qpmin=0 / qpmax=69 / qpstep=4 / cplxblur=20.0 / qblur=0.5 / ip_ratio=1.20 / pb_ratio=1.20 / aq=3:0.85
Language                    : English
Default                     : Yes
Forced                      : No

Audio #1
ID                          : 2
Format                      : AC-3
Format/Info                 : Audio Coding 3
Commercial name             : Dolby Digital
Codec ID                    : A_AC3
Duration                    : 2 h 8 min
Bit rate mode               : Constant
Bit rate                    : 192 kb/s
Channel(s)                  : 2 channels
Channel layout              : L R
Sampling rate               : 48.0 kHz
Frame rate                  : 31.250 FPS (1536 SPF)
Bit depth                   : 16 bits
Compression mode            : Lossy
Stream size                 : 176 MiB (3%)
Title                       : Dub [Ledoyen] 2.0 [stereo] 192 Kbps
Language                    : Ukrainian
Service kind                : Complete Main
Default                     : Yes
Forced                      : Yes

Audio #2
ID                          : 3
Format                      : AC-3
Format/Info                 : Audio Coding 3
Commercial name             : Dolby Digital
Codec ID                    : A_AC3
Duration                    : 2 h 8 min
Bit rate mode               : Constant
Bit rate                    : 640 kb/s
Channel(s)                  : 6 channels
Channel layout              : L R C LFE Ls Rs
Sampling rate               : 48.0 kHz
Frame rate                  : 31.250 FPS (1536 SPF)
Bit depth                   : 16 bits
Compression mode            : Lossy
Stream size                 : 587 MiB (10%)
Title                       : Original, 5.1 640 Kbps
Language                    : English
Service kind                : Complete Main
Default                     : No
Forced                      : No

Text #1
ID                          : 4
Format                      : UTF-8
Codec ID                    : S_TEXT/UTF8
Codec ID/Info               : UTF-8 Plain Text
Duration                    : 1 h 55 min
Bit rate                    : 43 b/s
Count of elements           : 1378
Stream size                 : 37.2 KiB (0%)
Title                       : Eng full
Language                    : English
Default                     : No
Forced                      : No

Text #2
ID                          : 5
Format                      : UTF-8
Codec ID                    : S_TEXT/UTF8
Codec ID/Info               : UTF-8 Plain Text
Duration                    : 2 h 8 min
Bit rate                    : 55 b/s
Count of elements           : 2115
Stream size                 : 52.3 KiB (0%)
Title                       : Eng SDH (UTF-8, SRT]
Language                    : English
Default                     : No
Forced                      : No

Text #3
ID                          : 6
Format                      : PGS
Muxing mode                 : zlib
Codec ID                    : S_HDMV/PGS
Codec ID/Info               : Picture based subtitle format used on BDs/HD-DVDs
Duration                    : 2 h 7 min
Bit rate                    : 35.3 kb/s
Count of elements           : 3541
Stream size                 : 32.1 MiB (1%)
Title                       : Eng SDH (PGS)
Language                    : English
Default                     : No
Forced                      : No

Menu
00:00:00.000                : en:Глава 1
00:07:13.223                : en:Глава 2
00:12:01.553                : en:Глава 3
00:17:17.744                : en:Глава 4
00:21:17.192                : en:Глава 5
00:28:49.810                : en:Глава 6
00:35:04.684                : en:Глава 7
00:40:51.574                : en:Глава 8
00:46:32.498                : en:Глава 9
00:52:04.996                : en:Глава 10
01:00:59.197                : en:Глава 11
01:06:50.255                : en:Глава 12
01:11:07.637                : en:Глава 13
01:17:21.094                : en:Глава 14
01:26:55.210                : en:Глава 15
01:33:01.492                : en:Глава 16
01:42:55.877                : en:Глава 17
01:50:01.552                : en:Глава 18
01:54:56.221                : en:Глава 19
01:58:37.984                : en:Глава 20
02:08:17.439                : en:Глава 21


Код:
[info]: frame I:1562  Avg QP:12.14  size: 99279
[info]: frame P:45523 Avg QP:13.57  size: 48775
[info]: frame B:137475 Avg QP:14.22  size: 21218
[info]: consecutive B-frames:  3.7%  6.7% 10.5% 19.4% 17.4% 30.4%  6.0%  2.6%  3.4%


Підтримати купівлю інших фільмів можна тут.


Джерело: &
Подяка Sando7 за синхронізацію звуку.

08.09.2018 реліз оновлено до 'у та українську доріжку замінено якіснішою


 Трекер:    Зареєстрований   

Завантажити / скачати фільм українською



відео для новачків



 Зареєстрований:   2018-09-08 21:34
 Розмір:   5.69 GB 
 Оцінка фільму:   8.8/10 (Голосів: 108)
   
ortt11 
Частий відвідувач


З нами з: 12.01.09
Востаннє: 17.10.18
Повідомлень: 38

2018-07-28 23:50  
Оцінка фільму - одиниця, але якщо би була можливість обирати від'ємні значення оцінив би більш адекватно.
oster_ok 
Відео Гуртом - підтримка та поширення
Відео Гуртом - підтримка та поширення


З нами з: 20.11.11
Востаннє: 17.10.18
Повідомлень: 125

2018-07-29 02:08  
Я так розумію, що третю частину вони точно планують робити?
KeryaS 
Свій


З нами з: 01.09.14
Востаннє: 17.10.18
Повідомлень: 95

2018-07-29 09:47  
Дивитися можна, але багато очікувати від цього фільму не варто.
rumumba 
Новенький


З нами з: 24.01.10
Востаннє: 16.10.18
Повідомлень: 23

2018-07-29 22:19  
народ балуваний став, та й ще й за халяву ))
нормальний фільм, якісний, бюджетний.

demitsuru 
Частий відвідувач


З нами з: 13.11.16
Востаннє: 16.10.18
Повідомлень: 26

2018-07-30 00:24  
Реакція від фільму точно така сама як від "Чужий: Заповіт", але ще гірше.
Це такий трешак.

Абсолютно все нелогічне.
1. Після першої частини, острів мав бути на карантині під наглядом міжнародної спільноти.
2. Дідусь помер тупо, та й ще так вчинити
3. Мала тупа
4. Дорослі тупі
5. Всі без мозку.
Із классичного Юрського Періоду перетворити на "хлєба і зреліщ". Стільки кліше.
А кінцівка така тупа. Натяк на третю частину. А що логіка підказує?
Щоб ти с динозврами ти не робив, вони тупо мясо перед людьми з технологіями. Не зробити з них ніякої зброї.
Один танк вб'є будь що живе з юрського періоду.

hamsster 
Новенький


З нами з: 08.02.12
Востаннє: 13.10.18
Повідомлень: 3

2018-07-30 08:46  
demitsuru
"Чужий: Заповіт" нормальне кінце, так що не треба!

madagaskar1 
VIP


З нами з: 08.05.14
Востаннє: 14.10.18
Повідомлень: 594

2018-07-30 10:50  
класний фільм, третя частина буде певно взагалі супер має вийти!
Школоті не зрозуміти, оскільки їх прогнилі мізки тільки те й можуть, що марвело-дісішний світ сприймати з збоченими костюмами.

kiboal 
Свій


З нами з: 25.12.14
Востаннє: 15.10.18
Повідомлень: 104

2018-07-30 16:51  
Не витрачайте свій час фільм повна кака, додивився с 2 разу,знав зо така кака дивився в рос. дубляжі і не чекав би української...
Electroz 
Відео Гуртом - підтримка та поширення
Відео Гуртом - підтримка та поширення


З нами з: 18.09.14
Востаннє: 17.10.18
Повідомлень: 3024

2018-07-30 17:11  
kiboal написано:
знав зо така кака дивився в рос. дубляжі і не чекав би української...

Скільки ви чекали? Декілька годин?

Kurai31 
Частий відвідувач


З нами з: 17.07.10
Востаннє: 13.10.18
Повідомлень: 32

2018-08-04 10:44  
Якийсь цей фильм ніякий... Можна в ньому динозаврів замінити на кошенят і нічого не зміниться - настільки тут динозаври вторинні. Динозаври вторинні у фільмі про динозаврів... Мде...
Сюжетна лінія про "порятунок" динозаврів якась куца. Якщо порівнювати з "Парк Юрського періоду: Загублений світ" (Світ цього самого періоду повністю повторює сюжет Парку), то там пригодам на острові приділено більше уваги, ніж на материку. А тут... Ще й комізму додали Sad (1)

Anonymous 







2018-09-08 21:35  
Реліз оновлено до 'у та українську доріжку замінено якіснішою

Додано через 17 секунд:

"золото" на тиждень

darklight94 
Новенький


З нами з: 08.07.18
Востаннє: 17.10.18
Повідомлень: 19

2018-09-09 02:12  
"українську доріжку замінено якіснішою"

Це той самий line, тільки якісніший?

11FrYkT 
Модератор відео


З нами з: 20.02.11
Востаннє: 17.10.18
Повідомлень: 5079

2018-09-09 08:32  
darklight94 написано:
Це той самий line, тільки якісніший?

тоді б ніхто не писав що оновлено на якісніший

granter 
Новенький


З нами з: 13.10.09
Востаннє: 14.10.18
Повідомлень: 15

2018-09-17 02:30  
Непоганий фільм.Краще ніж перша частина однозначно.

ps:Хижака-антагоніста могли і пострашнішого придумати.

Breton 
Новенький


З нами з: 26.05.12
Востаннє: 16.10.18
Повідомлень: 22

2018-09-17 14:58  
Фільм гарний але тупий , про людську жадібність і тупість в багатьох вчинках , динозаври там для картинки і емоцій ))
andriuha80 
Свій


З нами з: 22.03.14
Востаннє: 16.10.18
Повідомлень: 63

2018-09-27 07:15  
Відвертий шлак з претензією на моралізаторство і "ми відповідальні за тих кого приручили".
Ваш часовий пояс: GMT + 2 Години

Нова тема   Відповісти