Друга Ріка - Піраміда (2017) [] | Rock

Нові коментарі

Нова тема   Відповісти
Автор Повідомлення
dark_inwhite 
VIP


З нами з: 15.09.16
Востаннє: 21.07.19
Повідомлень: 362

2018-07-27 19:02  
Друга Ріка - Піраміда (2017) [] | Rock

Друга Ріка - Піраміда (2017) [] | Rock


Стиль: Rock
Країна, місто: Україна, Житомир-Київ
Сайти: Офіційний сайт
Видавець: Lavina Music
Виконавці:
Валерій Харчишин — вокал, труба
Олександр Барановський — гітара
Олексій Дорошенко — ударні
Сергій Беліченко — гітара
Сергій Гера (Шура) — клавішні
Андрій Лавриненко — бас-гитара
Пісні:
    01. Секрет
    02. Доки я не пішов
    03. Ти є я
    04. Оооо/Брудний і милий
    05. Монстр
    06. Ангел
    07. Сьомий день
    08. Не видавай
    09. Дощ/Хай вмиє нас

Тривалість: 00:38:48
Мова: українська
Аудіо-кодек:
Бітрейт: 1523 - 1770 кб/с
Джерело: Інтернет
Додаткова інформація:
DRM
foobar2000 1.3.17 / Dynamic Range Meter 1.1.1
log date: 2018-07-27 18:55:59

--------------------------------------------------------------------------------
Analyzed: Друга Ріка / Піраміда
--------------------------------------------------------------------------------

DR Peak RMS Duration Track
--------------------------------------------------------------------------------
DR4 -0.19 dB -6.31 dB 4:40 01-Секрет
DR5 -0.10 dB -6.39 dB 3:33 02-Доки я не пішов
DR6 -0.03 dB -6.94 dB 3:48 03-Ти є я
DR6 -0.01 dB -7.49 dB 5:11 04-Оооо / Брудний і милий
DR6 -0.01 dB -7.09 dB 3:47 05-Монстр
DR6 -0.03 dB -7.05 dB 3:24 06-Ангел
DR6 -0.01 dB -8.37 dB 4:35 07-Сьомий день
DR5 -0.04 dB -6.74 dB 4:18 08-Не видавай
DR5 -0.02 dB -7.05 dB 5:34 09-Дощ / Хай вмиє нас
--------------------------------------------------------------------------------

Number of tracks: 9
Official DR value: DR5

Samplerate: 44100 Hz
Channels: 2
Bits per sample: 24
Bitrate: 1676 kbps
Codec:
================================================================================
Спектри


Якщо Ви справді бажаєте підтримати українське - після прослуховування, якщо музика вам сподобалась, придбайте ліцензійний диск. Підтримаймо вітчизняних виконавців!



Срібний реліз (на рейтинг впливає 50% завантаженого)
 Трекер:    Зареєстрований   

Завантажити / скачати українську музику



відео для новачків



 Зареєстрований:   2018-07-27 19:02
 Розмір:   474 MB 
 Оцінка музики:   9.9/10 (Голосів: 22)
   
_Alex_UA 
Поважний учасник


З нами з: 18.07.12
Востаннє: 21.07.19
Повідомлень: 151

2019-01-12 20:23  
один з найкращих гуртів. якісна музика.
mvn23 
Новенький


З нами з: 23.03.17
Востаннє: 15.06.19
Повідомлень: 1

2019-01-23 20:00  
Плеєр нажаль зависає на цим записі. Якщо не важко - перезалийте. Дякую.
dark_inwhite 
VIP


З нами з: 15.09.16
Востаннє: 21.07.19
Повідомлень: 362

2019-01-23 21:09  
mvn23 Навіщо перезаливати? Тут всі файли в нормальному стані. Просто ваш плеєр не підтримує 24 бітний флак, завантажте мп3 і буде вам радість)
rumumba 
Частий відвідувач


З нами з: 24.01.10
Востаннє: 29.06.19
Повідомлень: 25

2019-03-12 21:31  
QMMP for LINUX
FOOBAR2000 for WIN
cool music but stupid texts, IMHO )

ssTAss 
Модератор музики


З нами з: 05.07.08
Востаннє: 21.07.19
Повідомлень: 15173

2019-03-13 01:21  
rumumba написано:
cool music but stupid texts, IMHO )

Цитата:
Всім без винятку заборонено:
2.1 Спілкуватися іншою мовою, аніж літературною українською; використовувати для написання українських слів іншу абетку, аніж кирилицю

https://toloka.to/faq.php

Ваш часовий пояс: GMT + 2 Години

Нова тема   Відповісти