Вечеря / The Dinner (2017) 1080p Ukr/Eng | Sub Eng

Нові коментарі

Нова тема   Відповісти
Автор Повідомлення
staf777 
Відео Гуртом - підтримка та поширення
Відео Гуртом - підтримка та поширення


З нами з: 16.11.16
Востаннє: 18.09.20
Повідомлень: 4017

2018-07-26 22:07  
Вечеря / The Dinner (2017) 1080p Ukr/Eng | Sub Eng

Вечеря / The Dinner (2017) 1080p Ukr/Eng | Sub Eng


Жанр: драма, кримінальний, трилер
Країна: США



Кінокомпанія: ChubbCo Film, Blackbird, Code Red
Режисер: Орен Моверман
Актори: Річард Гір, Лора Лінні, Стів Куген, Ребекка Голл, Хлоя Севіньї, Майкл Чернус, Чарлі Пламмер

Сюжет:
Один вечір у ресторані. Дві сім'ї за столом: майбутній прем'єр-міністр Стен Ломан і його брат Пол з дружинами. Вишукана вечеря перетворюється у поле битви, а доля їхніх дітей - у розмінну монету. Як далеко здатний зайти батько, щоб захистити сина, який вчинив злочин?


Тривалість: 02:00:26
Якість:
Відео:
кодек:
розмір кадру: 1920x1038
бітрейт: 12,3 Mб/с

Аудіо # 1:
мова: українська
переклад: багатоголосий закадровий
кодек: 5.1
бітрейт: 384 кб/с

Аудіо # 2:
мова: англійська
переклад: оригінал
кодек: 5.1
бітрейт: 1509 кб/с

Субтитри:
мова: англійська
тип: програмні (м'які)
формат: *.srt
Info
General
Unique ID : 104757381402694530949019053748177443562 (0x4ECF89AB8CF402F9AC5C9174E6B59AEA)
Complete name : G:\Майбутні релізи\The Dinner (2017) 1080p [UKR_ENG] [Hurtom].
Format :
Format version : Version 4 / Version 2
File size : 12.0 GiB
Duration : 2 h 0 min
Overall bit rate : 14.2 Mb/s
Movie name : The Dinner (2017) 1080p [UKR_ENG] [Hurtom]
Encoded date : UTC 2018-07-26 19:58:01
Writing application : v24.0.0 ('Beyond The Pale') 64-bit
Writing library : libebml v1.3.6 + v1.4.9
Cover : Yes
Attachments : cover.jpg

Video
ID : 1
Format : AVC
Format/Info : Advanced Video Codec
Format profile : [email protected]
Format settings : CABAC / 4 Ref Frames
Format settings, CABAC : Yes
Format settings, ReFrames : 4 frames
Codec ID : V_MPEG4/ISO/AVC
Duration : 2 h 0 min
Bit rate : 12.3 Mb/s
Width : 1 920 pixels
Height : 1 038 pixels
Display aspect ratio : 1.85:1
Frame rate mode : Constant
Frame rate : 23.976 (24000/1001) FPS
Color space : YUV
Chroma subsampling : 4:2:0
Bit depth : 8 bits
Scan type : Progressive
Bits/(Pixel*Frame) : 0.258
Stream size : 10.4 GiB (87%)
Writing library : core 148 r2699+6+41 29a38aa Yuuki [[email protected]:2:0 X86_64][GCC 5.3.0]
Encoding settings : cabac=1 / ref=4 / deblock=1:-3:-3 / analyse=0x3:0x113 / me=umh / subme=11 / psy=1 / fade_compensate=0.00 / psy_rd=1.00:0.05 / mixed_ref=1 / me_range=32 / chroma_me=1 / trellis=2 / 8x8dct=1 / cqm=0 / deadzone=21,11 / fast_pskip=0 / chroma_qp_offset=-2 / threads=24 / lookahead_threads=4 / sliced_threads=0 / nr=0 / decimate=1 / interlaced=0 / bluray_compat=0 / constrained_intra=0 / fgo=0 / bframes=8 / b_pyramid=2 / b_adapt=2 / b_bias=0 / direct=3 / weightb=1 / open_gop=0 / weightp=2 / keyint=250 / keyint_min=23 / scenecut=40 / intra_refresh=0 / rc_lookahead=40 / rc=crf / mbtree=0 / crf=19.5000 / qcomp=0.60 / qpmin=0:0:0 / qpmax=69:69:69 / qpstep=4 / vbv_maxrate=50000 / vbv_bufsize=40000 / crf_max=0.0 / nal_hrd=none / filler=0 / ip_ratio=1.40 / pb_ratio=1.30 / aq=3:0.90
Language : English
Default : Yes
Forced : No

Audio #1
ID : 2
Format : AC-3
Format/Info : Audio Coding 3
Codec ID : A_AC3
Duration : 2 h 0 min
Bit rate mode : Constant
Bit rate : 384 kb/s
Channel(s) : 6 channels
Channel positions : Front: L C R, Side: L R, LFE
Sampling rate : 48.0 kHz
Frame rate : 31.250 FPS (1536 SPF)
Bit depth : 16 bits
Compression mode : Lossy
Stream size : 331 MiB (3%)
Title : [UA-MVO]
Language : Ukrainian
Service kind : Complete Main
Default : Yes
Forced : Yes

Audio #2
ID : 3
Format :
Format/Info : Digital Theater Systems
Codec ID : A_DTS
Duration : 2 h 0 min
Bit rate mode : Constant
Bit rate : 1 509 kb/s
Channel(s) : 6 channels
Channel positions : Front: L C R, Side: L R, LFE
Sampling rate : 48.0 kHz
Frame rate : 93.750 FPS (512 SPF)
Bit depth : 24 bits
Compression mode : Lossy
Stream size : 1.27 GiB (11%)
Title : Original
Language : English
Default : No
Forced : No

Text
ID : 4
Format : UTF-8
Codec ID : S_TEXT/UTF8
Codec ID/Info : UTF-8 Plain Text
Duration : 1 h 59 min
Bit rate : 88 b/s
Count of elements : 2134
Stream size : 77.2 KiB (0%)
Title : Full
Language : English
Default : No
Forced : No

Menu
00:00:00.000 : en:00:00:00.000
00:10:47.814 : en:00:10:47.814
00:22:17.711 : en:00:22:17.711
00:30:58.607 : en:00:30:58.607
00:40:39.187 : en:00:40:39.187
00:50:19.225 : en:00:50:19.225
00:58:53.029 : en:00:58:53.029
01:10:22.218 : en:01:10:22.218
01:24:43.704 : en:01:24:43.704
01:37:09.073 : en:01:37:09.073
01:45:30.282 : en:01:45:30.282
01:54:20.854 : en:01:54:20.854
Скріншоти



Подяка пану AngryBirdsUA за доріжку та пану Hanway за синхронізацію.
За допомогу в створені реліза дякую пану 11FrYkT
Джерело: &
Особиста оцінка: 0 - не дивився


 Трекер:    Зареєстрований   

Завантажити / скачати фільм українською



відео для новачків



 Зареєстрований:   2018-07-26 23:16
 Розмір:   11.98 GB 
 Оцінка фільму:   8/10 (Голосів: 3)
   
Інші релізи
   Вечеря / The Dinner (2017) Remux 1080р Ukr/Eng | Sub Eng staf777  1 / 0   26.61 GB   2018-07-27 08:21 
   Вечеря / The Dinner (2017) AVC Ukr/Eng | Sub Eng 11FrYkT  5 / 0   2.59 GB   2018-07-26 20:12 
   Вечеря / The Dinner (2017) 720p Ukr/Eng | Sub Eng 11FrYkT  0 / 0   4.13 GB   2018-07-26 20:12 
Ваш часовий пояс: GMT + 2 Години

Нова тема   Відповісти