Дедпул 2 [Супер-пупер версія] / Deadpool 2 [The Super Duper Cut] (2018) 1080p Ukr/Eng | Sub Eng

Нові коментарі

Нова тема   Відповісти
Сторінка:  1, 2  наступна
Автор Повідомлення
staf777 
Попереджень: 1
Попереджень: 1 


З нами з: 16.11.16
Востаннє: 16.12.18
Повідомлень: 1928

2018-07-26 18:12  
Дедпул 2 [Супер-пупер версія] / Deadpool 2 [The Super Duper Cut] (2018) 1080p Ukr/Eng | Sub Eng



Альтернативні постери








«Готуйтеся до другого пришестя»



Жанр: бойовик, комедія, пригоди, фантастика
Країна: США



Кінокомпанія: Donners' Company, Kinberg Genre, Marvel Entertainment
Режисер: Девід Літч
Актори: Джош Бролін, Райан Рейнольдс, Морена Баккарін, Зазі Бітц, Бріанна Хілдебранд, Бред Пітт, Білл Скарсгард, Метт Деймон, ТіДжей Міллер, Террі Крюс

Сюжет:
Переживши майже смертельну вірусну діарею великої рогатої худоби, спотворений шеф-кухар бореться за свою мрію — стати найгарячішим барменом Мейберрі. Паралельно він вчиться справлятися з втратою почуття смаку. У спробах повернути смак до життя, а також конденсатор тимчасового потоку, Вейд повинен битися з ніндзя, якудза і зграєю сексуально агресивних собак. Подорожуючи навколо світу, він пізнає всю значимість сім'ї, дружби і аромату, знайде той самий новий запах пригод і нарешті отримає таку бажану кавову чашку з написом «Кращий коханець у світі».


Тривалість: 02:13:59
Якість: 1080p

Відео:
кодек:
розмір кадру: 1920x804
бітрейт: 15,6 Mб/с

Аудіо # 1:
мова: українська
переклад: професійний дубльований | студія Postmodern
кодек: 5.1
бітрейт: 448 кб/с

Аудіо # 2:
мова: англійська
переклад: оригінал
кодек: 5.1
бітрейт: 1509 кб/с

Субтитри # 1-2: (Forced, Full)
мова: українська
тип: програмні (м'які)
формат: *.srt

Субтитри # 3-4: (Full, SDH)
мова: англійська
тип: програмні (м'які)
формат: *.srt
Info
Код:

General
Unique ID                   : 243256916674803897561583216556190947174 (0xB70193F7D4691998F2570078DEA75766)
Complete name               : D:\KINOZAL\Deadpool 2 [The Super Duper Cut] (2018) 1080p [UKR_ENG] [Hurtom].
Format                      :
Format version              : Version 4 / Version 2
File size                   : 16.4 GiB
Duration                    : 2 h 13 min
Overall bit rate            : 17.5 Mb/s
Movie name                  : Deadpool 2 [The Super Duper Cut] (2018) 1080p [UKR_ENG] [Hurtom]
Encoded date                : UTC 2018-08-22 15:32:56
Writing application         : v24.0.0 ('Beyond The Pale') 64-bit
Writing library             : libebml v1.3.6 + v1.4.9
Cover                       : Yes
Attachments                 : cover.jpg

Video
ID                          : 1
Format                      : AVC
Format/Info                 : Advanced Video Codec
Format profile              : [email protected]
Format settings             : CABAC / 5 Ref Frames
Format settings, CABAC      : Yes
Format settings, ReFrames   : 5 frames
Codec ID                    : V_MPEG4/ISO/AVC
Duration                    : 2 h 13 min
Bit rate                    : 15.6 Mb/s
Width                       : 1 920 pixels
Height                      : 804 pixels
Display aspect ratio        : 2.40:1
Frame rate mode             : Constant
Frame rate                  : 23.976 (24000/1001) FPS
Color space                 : YUV
Chroma subsampling          : 4:2:0
Bit depth                   : 8 bits
Scan type                   : Progressive
Bits/(Pixel*Frame)          : 0.421
Stream size                 : 14.6 GiB (89%)
Writing library             : core 129 r2245 bc13772
Encoding settings           : cabac=1 / ref=5 / deblock=1:-3:-3 / analyse=0x3:0x133 / me=umh / subme=11 / psy=1 / psy_rd=1.05:0.10 / mixed_ref=1 / me_range=64 / chroma_me=1 / trellis=2 / 8x8dct=1 / cqm=0 / deadzone=21,11 / fast_pskip=0 / chroma_qp_offset=-3 / threads=12 / lookahead_threads=2 / sliced_threads=0 / nr=0 / decimate=1 / interlaced=0 / bluray_compat=0 / constrained_intra=0 / bframes=8 / b_pyramid=2 / b_adapt=2 / b_bias=0 / direct=3 / weightb=1 / open_gop=0 / weightp=2 / keyint=250 / keyint_min=23 / scenecut=40 / intra_refresh=0 / rc_lookahead=60 / rc=2pass / mbtree=1 / bitrate=15585 / ratetol=1.0 / qcomp=0.60 / qpmin=0 / qpmax=69 / qpstep=4 / cplxblur=20.0 / qblur=0.5 / vbv_maxrate=40000 / vbv_bufsize=30000 / nal_hrd=none / ip_ratio=1.40 / aq=1:0.80
Language                    : English
Default                     : Yes
Forced                      : No

Audio #1
ID                          : 2
Format                      : AC-3
Format/Info                 : Audio Coding 3
Codec ID                    : A_AC3
Duration                    : 2 h 13 min
Bit rate mode               : Constant
Bit rate                    : 448 kb/s
Channel(s)                  : 6 channels
Channel positions           : Front: L C R, Side: L R, LFE
Sampling rate               : 48.0 kHz
Frame rate                  : 31.250 FPS (1536 SPF)
Bit depth                   : 16 bits
Compression mode            : Lossy
Stream size                 : 429 MiB (3%)
Title                       : [UA-DUB]
Language                    : Ukrainian
Service kind                : Complete Main
Default                     : Yes
Forced                      : Yes

Audio #2
ID                          : 3
Format                      :
Format/Info                 : Digital Theater Systems
Format profile              : ES Matrix / Core
Codec ID                    : A_DTS
Duration                    : 2 h 13 min
Bit rate mode               : Constant
Bit rate                    : 1 509 kb/s
Channel(s)                  : 7 channels / 6 channels
Channel positions           : Front: L C R, Side: L R, Back: C, LFE / Front: L C R, Side: L R, LFE
Sampling rate               : 48.0 kHz
Frame rate                  : 93.750 FPS (512 SPF)
Bit depth                   : 24 bits
Compression mode            : Lossy
Stream size                 : 1.41 GiB (9%)
Title                       : Original
Language                    : English
Default                     : No
Forced                      : No

Text #1
ID                          : 4
Format                      : UTF-8
Codec ID                    : S_TEXT/UTF8
Codec ID/Info               : UTF-8 Plain Text
Duration                    : 52 min 55 s
Bit rate                    : 0 b/s
Count of elements           : 4
Stream size                 : 151 Bytes (0%)
Language                    : Ukrainian
Default                     : Yes
Forced                      : Yes

Text #2
ID                          : 5
Format                      : UTF-8
Codec ID                    : S_TEXT/UTF8
Codec ID/Info               : UTF-8 Plain Text
Duration                    : 2 h 12 min
Bit rate                    : 81 b/s
Count of elements           : 1919
Stream size                 : 79.3 KiB (0%)
Language                    : Ukrainian
Default                     : No
Forced                      : No

Text #3
ID                          : 6
Format                      : UTF-8
Codec ID                    : S_TEXT/UTF8
Codec ID/Info               : UTF-8 Plain Text
Duration                    : 2 h 11 min
Bit rate                    : 62 b/s
Count of elements           : 2129
Stream size                 : 60.4 KiB (0%)
Title                       : Full
Language                    : English
Default                     : No
Forced                      : No

Text #4
ID                          : 7
Format                      : UTF-8
Codec ID                    : S_TEXT/UTF8
Codec ID/Info               : UTF-8 Plain Text
Duration                    : 2 h 13 min
Bit rate                    : 69 b/s
Count of elements           : 2425
Stream size                 : 67.9 KiB (0%)
Title                       : SDH
Language                    : English
Default                     : No
Forced                      : No

Menu
00:00:00.000                : en:00:00:00.000
00:02:31.693                : en:00:02:31.693
00:07:55.517                : en:00:07:55.517
00:10:46.229                : en:00:10:46.229
00:14:21.194                : en:00:14:21.194
00:17:42.937                : en:00:17:42.937
00:19:10.775                : en:00:19:10.775
00:24:14.370                : en:00:24:14.370
00:27:11.630                : en:00:27:11.630
00:37:17.444                : en:00:37:17.444
00:42:11.821                : en:00:42:11.821
00:44:40.428                : en:00:44:40.428
00:49:30.926                : en:00:49:30.926
00:52:20.471                : en:00:52:20.471
00:56:47.613                : en:00:56:47.613
01:01:00.073                : en:01:01:00.073
01:04:47.050                : en:01:04:47.050
01:07:22.997                : en:01:07:22.997
01:09:45.098                : en:01:09:45.098
01:11:45.426                : en:01:11:45.426
01:15:21.016                : en:01:15:21.016
01:19:19.213                : en:01:19:19.213
01:21:00.189                : en:01:21:00.189
01:24:49.543                : en:01:24:49.543
01:29:10.845                : en:01:29:10.845
01:32:30.420                : en:01:32:30.420
01:36:11.391                : en:01:36:11.391
01:38:18.851                : en:01:38:18.851
01:42:06.329                : en:01:42:06.329
01:44:18.711                : en:01:44:18.711
01:46:03.774                : en:01:46:03.774
01:48:06.730                : en:01:48:06.730
01:51:31.977                : en:01:51:31.977
01:55:05.398                : en:01:55:05.398
01:58:16.047                : en:01:58:16.047
02:02:04.317                : en:02:02:04.317
Скріншоти




За допомогу в створені реліза дякую пану 11FrYkT
Джерело: &
Особиста оцінка: 0 - не дивився


 Трекер:    Зареєстрований   

Завантажити / скачати фільм українською



відео для новачків



 Зареєстрований:   2018-08-22 18:11
 Розмір:   16.42 GB 
 Оцінка фільму:   9.4/10 (Голосів: 151)
   
Ramirezz 
Частий відвідувач


З нами з: 27.01.14
Востаннє: 16.12.18
Повідомлень: 47

2018-07-26 18:53  
Чим так Корея відрізняється від інших країн, що саме її саби вставляють по замовчуванню?
SavvyZOR 
Новенький


З нами з: 14.05.13
Востаннє: 16.12.18
Повідомлень: 14

2018-07-26 20:01  
Картинка ужасно тормозит.
zoomymba2012 
VIP


З нами з: 08.01.15
Востаннє: 15.12.18
Повідомлень: 531

2018-07-26 20:03  
Ramirezz
Бо фільм ще не вийшов у мережі. Лише закриті покази у деяких країнах, от з Кореї частіше усього зливають.

bigvovan 
Свій


З нами з: 10.03.09
Востаннє: 20.11.18
Повідомлень: 65

2018-07-27 16:37  
Буду чекати Deadpool 2 DVD Release Date August 21
zhekaice 
Новенький


З нами з: 05.03.08
Востаннє: 04.12.18
Повідомлень: 18

2018-07-27 20:45  
Картинка реально смикається!
Фтопку такі релізи.

Goust 
Свій


З нами з: 07.02.12
Востаннє: 15.11.18
Повідомлень: 51

2018-07-27 22:03  
Коли буде реліз з хорошою якістю і без сабів ?
valya32 
Новенький


З нами з: 11.10.17
Востаннє: 15.12.18
Повідомлень: 1

2018-07-27 22:09  
Крутецьке кіно ))))
zoomymba2012 
VIP


З нами з: 08.01.15
Востаннє: 15.12.18
Повідомлень: 531

2018-07-27 22:25  
Goust
14 серпня

Відьмачечок 
Свій


З нами з: 17.05.11
Востаннє: 16.12.18
Повідомлень: 100

2018-07-27 22:25  
Опис просто вогонь!
380982245817 
Свій


З нами з: 22.07.15
Востаннє: 16.12.18
Повідомлень: 50

2018-07-28 13:51  
15 фпс сильно
tarasylo 
Свій


З нами з: 08.02.12
Востаннє: 15.12.18
Повідомлень: 96

2018-08-02 13:13  
380982245817 написано:
15 фпс сильно

для такого "кіна" якраз нормально ))

Ввічливе кабаня 
Новенький


З нами з: 05.12.17
Востаннє: 14.12.18
Повідомлень: 5

2018-08-02 18:05  
У Colossus-а акцент як у азірова Happy
Denaua 
Новенький


З нами з: 03.09.13
Востаннє: 16.12.18
Повідомлень: 3

2018-08-03 20:04  
Просто поясніть, навіщо викладати таке гі@но??? Якість - лажа! Вперше на цьому сайті зустрічаю такий непотріб!
KeryaS 
Свій


З нами з: 01.09.14
Востаннє: 16.12.18
Повідомлень: 102

2018-08-03 22:06  
Denaua
Ніхто ж не змушує дивитися. Чекайте ще 2 тижні.

povudlo 
Новенький


З нами з: 17.09.14
Востаннє: 16.12.18
Повідомлень: 8

2018-08-04 17:50  
коли викладаєте таке гімно (15 фпс), пишіть про це в описі!
Prolis 
Частий відвідувач


З нами з: 21.12.11
Востаннє: 20.11.18
Повідомлень: 33

2018-08-04 19:40  
povudlo
Info є

AntarielD02 
Частий відвідувач


З нами з: 06.10.09
Востаннє: 08.12.18
Повідомлень: 38

2018-08-04 19:49  
Prolis
а шо звичайна людина повинна в тому медіаінфо петрати - пишіть великими літерами - реліз лайно, дивитися лише гівноїдам, нормальні людоньки - проходьте мимо.

ProgBassing 
Відео Гуртом - фільмокрай
Відео Гуртом - фільмокрай


З нами з: 08.03.08
Востаннє: 16.12.18
Повідомлень: 807

2018-08-04 20:51  
AntarielD02 написано:
звичайна людина повинна в тому медіаінфо петрати


ну от, є нагода стати дещо незвичайною людиною
...це якщо не НАДзвичайною ))
...аби тільки не ЧРЄЗзвЬІчайною!!!

14.4 fps - це круто XD

Strider477 
Частий відвідувач


З нами з: 29.10.11
Востаннє: 16.12.18
Повідомлень: 41

2018-08-05 10:02  
Так кіно і без тих ваших фпс кака)))
Zelenka93 
Свій


З нами з: 12.02.12
Востаннє: 14.12.18
Повідомлень: 60

2018-08-06 17:01  
Відьмачечок написано:
Опис просто вогонь!

Підтримую!

igor911 
Відео Гуртом
Відео Гуртом


З нами з: 18.01.08
Востаннє: 16.12.18
Повідомлень: 11621

2018-08-07 08:33  
З'явилась чиста вебка в мережі.
lion822 
Поважний учасник


З нами з: 27.12.11
Востаннє: 16.12.18
Повідомлень: 165

2018-08-07 10:37  
igor911 написано:
З'явилась чиста вебка в мережі.

Так, 1080p в мережi. Чекаемо релiз

KeryaS 
Свій


З нами з: 01.09.14
Востаннє: 16.12.18
Повідомлень: 102

2018-08-07 18:30  
Del
staf777 
Попереджень: 1
Попереджень: 1 


З нами з: 16.11.16
Востаннє: 16.12.18
Повідомлень: 1928

2018-08-07 18:38  
Відеоряд без корейських субтитрів, не смикається.
Влад Гук 
Частий відвідувач


З нами з: 06.07.13
Востаннє: 16.12.18
Повідомлень: 31

2018-08-07 18:51  
Є відеоряд з амазону, теж , але якісніший на 8,45гб
11FrYkT 
Модератор відео


З нами з: 20.02.11
Востаннє: 16.12.18
Повідомлень: 5269

2018-08-07 19:09  
Влад Гук написано:
Є відеоряд з амазону, теж , але якісніший на 8,45гб

є блурей, для чого ці вебки?

rhorosh 
Частий відвідувач


З нами з: 22.03.09
Востаннє: 16.12.18
Повідомлень: 47

2018-08-07 19:53  
Скажіть, буль ласка, коли варто чекати кращий звук?
Чув також що має бути режисерська версія фільму. Чи знаєте коли?
Дякую.

gazafo 
Новенький


З нами з: 20.01.16
Востаннє: 16.12.18
Повідомлень: 14

2018-08-07 21:31  
Розширена версія уже є в мережі. Надіюсь, звук і субтитри на неозвучені місця швидко прикрутят. Дуже хочеться подивитись нарешті.
AlbertTol 
Новенький


З нами з: 12.11.17
Востаннє: 16.12.18
Повідомлень: 13

2018-08-08 10:38  
Дуже кумедне кіно. Раджу
Ваш часовий пояс: GMT + 2 Години

Нова тема   Відповісти Сторінка:  1, 2  наступна