Червона планета / Red Planet (2000) AVC Ukr/Eng | Sub Eng

Нові коментарі

Нова тема   Відповісти
Автор Повідомлення
staf777 
Відео Гуртом - підтримка та поширення
Відео Гуртом - підтримка та поширення


З нами з: 16.11.16
Востаннє: 12.12.19
Повідомлень: 3047

2018-07-26 16:09  
Червона планета / Red Planet (2000) AVC Ukr/Eng | Sub Eng

Червона планета / Red Planet (2000) AVC Ukr/Eng | Sub Eng


Жанр: пригодницький, екшн, фантастика
Країна: США, Австралія



Кінокомпанія: Warner Bros. Pictures, Village Roadshow Pictures, The Canton Company, NPV Entertainment
Режисер: Ентоні Гоффман / Antony Hoffman
Актори: Ентоні Гоффман / Antony Hoffman Актори: Вел Кілмер / Val Kilmer, Керрі-Енн Мосс / Carrie-Anne Moss, Том Сайзмор / Tom Sizemore, Бенджамін Бретт / Benjamin Bratt, Саймон Бейкер / Simon Baker, Теренс Стемп / Terence Stamp, Джессіка Мортон / Jessica Morton, Керолайн Боссі / Caroline Bossi, Боб Нілл / Bob Neill, Ніл Россі / Neil Ross та інші

Сюжет:
У 2056 році Земля знаходиться на межі екологічної катастрофи в результаті забруднення і перенаселення. Тим часом автоматичні міжпланетні зонди розкидали по Марсу водорості для виробництва кисню - перша стадія терраформування червоної планети. Через 12 років на Землі дізнаються, що рівень виробленого кисню нез'ясовно впав. Екіпажу корабля «Марс-1» належить не тільки стати першими людьми, які ступили на іншу планету, а й дізнатися причину збою, адже Марс залишається єдиною надією врятувати людство. Однак після піврічного польоту до мети, при самій посадці виникають проблеми. Тепер перед астронавтами стоїть питання - як полетіти з цієї планети.


Тривалість: 01:46:30
Якість: AVC
Відео:
кодек:
розмір кадру: 1080x450
бітрейт: 2180 кб/с

Аудіо # 1:
мова: українська
переклад: двоголосий закадровий
кодек: 5.1
бітрейт: 384 кб/с

Аудіо # 2:
мова: англійська
переклад: оригінал
кодек: 5.1
бітрейт: 256 кб/с

Джерело озвучення:


Субтитри:
мова: англійська
тип: програмні (м'які)
формат: *.srt
Info
General
Unique ID : 35750149735368586617625514948054839826 (0x1AE53A77B664A5D037B318BECAC57212)
Complete name : G:\Майбутні релізи\Red Planet (2000) AVC [UA-ENG] [Hurtom].
Format :
Format version : Version 4 / Version 2
File size : 2.10 GiB
Duration : 1 h 46 min
Overall bit rate : 2 819 kb/s
Movie name : Red Planet (2000) AVC [UA-ENG] [Hurtom]
Encoded date : UTC 2018-07-26 14:02:01
Writing application : v24.0.0 ('Beyond The Pale') 64-bit
Writing library : libebml v1.3.6 + v1.4.9
Cover : Yes
Attachments : Cover.jpg

Video
ID : 1
Format : AVC
Format/Info : Advanced Video Codec
Format profile : [email protected]
Format settings : CABAC / 14 Ref Frames
Format settings, CABAC : Yes
Format settings, ReFrames : 14 frames
Codec ID : V_MPEG4/ISO/AVC
Duration : 1 h 46 min
Bit rate : 2 180 kb/s
Width : 1 080 pixels
Height : 450 pixels
Display aspect ratio : 2.40:1
Frame rate mode : Constant
Frame rate : 23.976 (24000/1001) FPS
Color space : YUV
Chroma subsampling : 4:2:0
Bit depth : 8 bits
Scan type : Progressive
Bits/(Pixel*Frame) : 0.187
Stream size : 1.62 GiB (77%)
Title : MPEG-4, 1080x450, 23.976 fps ~2180 kbps
Writing library : core 148 r2708 86b7198
Encoding settings : cabac=1 / ref=14 / deblock=1:-3:-2 / analyse=0x3:0x133 / me=umh / subme=11 / psy=1 / psy_rd=1.00:0.10 / mixed_ref=1 / me_range=56 / chroma_me=1 / trellis=2 / 8x8dct=1 / cqm=0 / deadzone=21,11 / fast_pskip=0 / chroma_qp_offset=-3 / threads=6 / lookahead_threads=1 / sliced_threads=0 / nr=0 / decimate=1 / interlaced=0 / bluray_compat=0 / constrained_intra=0 / bframes=16 / b_pyramid=2 / b_adapt=2 / b_bias=0 / direct=3 / weightb=1 / open_gop=0 / weightp=2 / keyint=240 / keyint_min=24 / scenecut=40 / intra_refresh=0 / rc_lookahead=80 / rc=2pass / mbtree=0 / bitrate=2180 / ratetol=1.0 / qcomp=0.60 / qpmin=0 / qpmax=69 / qpstep=4 / cplxblur=20.0 / qblur=0.5 / vbv_maxrate=62500 / vbv_bufsize=78125 / nal_hrd=none / filler=0 / ip_ratio=1.40 / pb_ratio=1.30 / aq=1:1.00
Language : English
Default : Yes
Forced : No
Color range : Limited
Color primaries : BT.709
Transfer characteristics : BT.709
Matrix coefficients : BT.709

Audio #1
ID : 2
Format : AC-3
Format/Info : Audio Coding 3
Codec ID : A_AC3
Duration : 1 h 46 min
Bit rate mode : Constant
Bit rate : 384 kb/s
Channel(s) : 6 channels
Channel positions : Front: L C R, Side: L R, LFE
Sampling rate : 48.0 kHz
Frame rate : 31.250 FPS (1536 SPF)
Bit depth : 16 bits
Compression mode : Lossy
Delay relative to video : -21 ms
Stream size : 292 MiB (14%)
Title : [UA-DVO-NEW CANAL]
Language : Ukrainian
Service kind : Complete Main
Default : Yes
Forced : Yes

Audio #2
ID : 3
Format :
Format/Info : Advanced Audio Codec
Format profile : HE- / LC
Format settings : Explicit
Codec ID : A_AAC-2
Duration : 1 h 46 min
Bit rate : 256 kb/s
Channel(s) : 6 channels
Channel positions : Front: L C R, Side: L R, LFE
Sampling rate : 48.0 kHz / 24.0 kHz
Frame rate : 23.438 FPS (1024 SPF)
Compression mode : Lossy
Delay relative to video : 10 ms
Stream size : 195 MiB (9%)
Title : HE- 6 ch, 24|48 kHz ~256 kbps - Original
Language : English
Default : No
Forced : No

Text
ID : 4
Format :
Codec ID : S_TEXT/
Codec ID/Info : Advanced Sub Station Alpha
Duration : 1 h 45 min
Bit rate : 83 b/s
Count of elements : 1142
Compression mode : Lossless
Stream size : 65.1 KiB (0%)
Language : English
Default : No
Forced : No

Menu
00:00:00.000 : :00:00:00.000
00:03:37.843 : :00:03:37.843
00:06:21.423 : :00:06:21.423
00:08:14.119 : :00:08:14.119
00:10:42.100 : :00:10:42.100
00:14:51.891 : :00:14:51.891
00:18:35.531 : :00:18:35.531
00:23:05.134 : :00:23:05.134
00:26:15.616 : :00:26:15.616
00:27:44.663 : :00:27:44.663
00:31:12.579 : :00:31:12.579
00:35:11.818 : :00:35:11.818
00:39:45.633 : :00:39:45.633
00:44:43.014 : :00:44:43.014
00:49:30.926 : :00:49:30.926
00:51:53.319 : :00:51:53.319
00:55:38.377 : :00:55:38.377
00:58:19.454 : :00:58:19.454
01:02:37.337 : :01:02:37.337
01:06:52.175 : :01:06:52.175
01:08:39.657 : :01:08:39.657
01:11:26.240 : :01:11:26.240
01:13:33.576 : :01:13:33.576
01:16:01.057 : :01:16:01.056
01:19:40.025 : :01:19:40.025
01:23:35.260 : :01:23:35.260
01:27:26.992 : :01:27:26.992
01:30:04.649 : :01:30:04.649
01:34:50.977 : :01:34:50.977
01:40:46.290 : :01:40:46.290
01:42:18.716 : :01:42:18.716
Скріншоти




Звукова доріжка - з релізу пана Lan
Джерело:
Особиста оцінка: 8 - мені сподобалося


Срібний реліз (на рейтинг впливає 50% завантаженого)
 Трекер:    Зареєстрований   

Завантажити / скачати фільм українською



відео для новачків



 Зареєстрований:   2018-07-26 16:50
 Розмір:   2.1 GB 
 Оцінка фільму:   8.5/10 (Голосів: 6)
   
Інші релізи
   Червона планета / Red Planet (2000) 1080p H.265 Ukr/Eng | Sub Eng -Star-Lord-  3 / 0   7.11 GB   2019-10-29 14:30 
   Червона планета / Red Planet (2000) 1080p Ukr/Eng | Sub Eng staf777  5 / 0   11.33 GB   2018-03-17 12:54 
   Червона планета / Red Planet (2000) 720p Ukr/Eng | Sub Eng xfsthe  1 / 0   4.47 GB   2012-02-09 13:44 
   Червона планета / Red Planet (2000) Ukr/Eng | Sub Eng Lan  3 / 0   2.18 GB   2011-12-01 13:24 
   Червона планета / Red Planet (2000) Ukr/Eng Anonymous  1 / 0   1.6 GB   2009-05-04 17:30 
bot 
робот


З нами з: 30.09.07
Востаннє: 26.05.05
Повідомлень: 22627

2018-07-26 16:49  
Тему перенесено з Анонси релізів до форуму Фільми


staf777

volodymyr_sav 
VIP


З нами з: 07.10.13
Востаннє: 08.12.19
Повідомлень: 1629

2018-07-27 10:20  
як фільм - якщо хто дивився, бо третій скрін хороший?
staf777 написано:
як полетіти з цієї планети
а для чого летіти, тож Земля гине, а то майбутня домівка?)))
Ваш часовий пояс: GMT + 2 Години

Нова тема   Відповісти