День, коли Земля зупинилась / The Day the Earth Stood Still (2008) AVC Ukr/Eng | Sub Ukr/Eng

Нові коментарі

Нова тема   Відповісти
Автор Повідомлення
staf777 
Відео Гуртом - підтримка та поширення
Відео Гуртом - підтримка та поширення


З нами з: 16.11.16
Востаннє: 14.11.19
Повідомлень: 3018

2018-07-26 09:08  
День, коли Земля зупинилась / The Day the Earth Stood Still (2008) AVC Ukr/Eng | Sub Ukr/Eng

День, коли Земля зупинилась / The Day the Earth Stood Still (2008) AVC Ukr/Eng | Sub Ukr/Eng


Жанр: драма, трилер, фантастика
Країна: США



Кінокомпанія: Twentieth Century Fox Film Corporation, 3 Arts Entertainment, Dune Entertainment
Режисер: Скот Деріксон / Scott Derrickson
Актори: Кіану Рівз / Keanu Reeves, Дженніфер Коннеллі / Jennifer Connelly, Кеті Бейтс / Kathy Bates, Джейден Сміт / Jaden Smith, Джон Кліз / John Cleese, Джон Хемм / Jon Hamm та інші.

Сюжет:
Галактична федерація планет відправляє на Землю посланця Клаату з попередженням: якщо уряди не припинять знищувати природу, людство буде знищено. Однак земляни не вірять прибульцю, і йому не залишається нічого іншого, окрім як рятуватись...


Тривалість: 01:39:30
Якість: AVC
Відео:
кодек:
розмір кадру: 1024х436
бітрейт: 2920 кб/с

Аудіо # 1:
мова: українська
переклад: професійний дубльований
кодек: 5.1
бітрейт: 448 кб/с

Аудіо # 2:
мова: англійська
переклад: оригінал
кодек: 5.1
бітрейт: 448 кб/с

Субтитри # 1-2:(форсовані/повні)
мова: українська
тип: програмні (м'які)
формат: *.srt

Субтитри # 3:
мова: англійська
тип: програмні (м'які)
формат: *.srt
Info
General
Unique ID : 170822000759268284269153591382729195337 (0x80831EE268F14C467FBB1CEAC1B67F49)
Complete name : H:\The Day the Earth Stood Still (2008) AVC [UA-ENG] [Hurtom].
Format :
Format version : Version 4 / Version 2
File size : 2.76 GiB
Duration : 1 h 43 min
Overall bit rate : 3 810 kb/s
Movie name : The Day the Earth Stood Still (2008) AVC [UA-ENG] [Hurtom]
Encoded date : UTC 2018-07-26 07:09:27
Writing application : v24.0.0 ('Beyond The Pale') 64-bit
Writing library : libebml v1.3.6 + v1.4.9
Cover : Yes
Attachments : cover.png

Video
ID : 1
Format : AVC
Format/Info : Advanced Video Codec
Format profile : [email protected]
Format settings : CABAC / 13 Ref Frames
Format settings, CABAC : Yes
Format settings, ReFrames : 13 frames
Codec ID : V_MPEG4/ISO/AVC
Duration : 1 h 43 min
Bit rate : 2 920 kb/s
Width : 1 024 pixels
Height : 436 pixels
Display aspect ratio : 2.35:1
Frame rate mode : Constant
Frame rate : 23.976 (24000/1001) FPS
Color space : YUV
Chroma subsampling : 4:2:0
Bit depth : 8 bits
Scan type : Progressive
Bits/(Pixel*Frame) : 0.273
Stream size : 2.11 GiB (76%)
Writing library : core 148 r2638 7599210
Encoding settings : cabac=1 / ref=13 / deblock=1:-3:-3 / analyse=0x3:0x113 / me=umh / subme=11 / psy=1 / psy_rd=1.00:0.15 / mixed_ref=1 / me_range=48 / chroma_me=1 / trellis=2 / 8x8dct=1 / cqm=0 / deadzone=21,11 / fast_pskip=0 / chroma_qp_offset=-3 / threads=6 / lookahead_threads=1 / sliced_threads=0 / nr=0 / decimate=1 / interlaced=0 / bluray_compat=0 / constrained_intra=0 / bframes=12 / b_pyramid=2 / b_adapt=2 / b_bias=0 / direct=3 / weightb=1 / open_gop=0 / weightp=2 / keyint=240 / keyint_min=23 / scenecut=40 / intra_refresh=0 / rc_lookahead=40 / rc=2pass / mbtree=0 / bitrate=2920 / ratetol=1.0 / qcomp=0.60 / qpmin=0 / qpmax=69 / qpstep=4 / cplxblur=20.0 / qblur=0.5 / vbv_maxrate=50000 / vbv_bufsize=62500 / nal_hrd=none / filler=0 / ip_ratio=1.40 / pb_ratio=1.30 / aq=3:0.80
Language : English
Default : Yes
Forced : No
Color range : Limited
Color primaries : BT.709
Transfer characteristics : BT.709
Matrix coefficients : BT.709

Audio #1
ID : 2
Format : AC-3
Format/Info : Audio Coding 3
Codec ID : A_AC3
Duration : 1 h 43 min
Bit rate mode : Constant
Bit rate : 448 kb/s
Channel(s) : 6 channels
Channel positions : Front: L C R, Side: L R, LFE
Sampling rate : 48.0 kHz
Frame rate : 31.250 FPS (1536 SPF)
Bit depth : 16 bits
Compression mode : Lossy
Stream size : 332 MiB (12%)
Title : [UA-DUB]
Language : Ukrainian
Service kind : Complete Main
Default : Yes
Forced : Yes

Audio #2
ID : 3
Format : AC-3
Format/Info : Audio Coding 3
Codec ID : A_AC3
Duration : 1 h 43 min
Bit rate mode : Constant
Bit rate : 448 kb/s
Channel(s) : 6 channels
Channel positions : Front: L C R, Side: L R, LFE
Sampling rate : 48.0 kHz
Frame rate : 31.250 FPS (1536 SPF)
Bit depth : 16 bits
Compression mode : Lossy
Stream size : 332 MiB (12%)
Language : English
Service kind : Complete Main
Default : No
Forced : No

Text #1
ID : 4
Format : UTF-8
Codec ID : S_TEXT/UTF8
Codec ID/Info : UTF-8 Plain Text
Duration : 39 min 3 s
Bit rate : 4 b/s
Count of elements : 28
Stream size : 1.38 KiB (0%)
Language : Ukrainian
Default : Yes
Forced : Yes

Text #2
ID : 5
Format : UTF-8
Codec ID : S_TEXT/UTF8
Codec ID/Info : UTF-8 Plain Text
Duration : 1 h 36 min
Bit rate : 106 b/s
Count of elements : 1161
Stream size : 75.1 KiB (0%)
Language : Ukrainian
Default : No
Forced : No

Text #3
ID : 6
Format : UTF-8
Codec ID : S_TEXT/UTF8
Codec ID/Info : UTF-8 Plain Text
Duration : 1 h 32 min
Bit rate : 52 b/s
Count of elements : 952
Stream size : 35.9 KiB (0%)
Language : English
Default : No
Forced : No

Menu
00:00:00.000 : en:Chapter 01
00:05:25.992 : en:Chapter 02
00:11:53.421 : en:Chapter 03
00:15:46.946 : en:Chapter 04
00:21:24.908 : en:Chapter 05
00:24:10.031 : en:Chapter 06
00:28:40.301 : en:Chapter 07
00:31:35.560 : en:Chapter 08
00:34:20.641 : en:Chapter 09
00:37:50.643 : en:Chapter 10
00:41:40.748 : en:Chapter 11
00:44:27.373 : en:Chapter 12
00:47:33.308 : en:Chapter 13
00:49:05.692 : en:Chapter 14
00:51:20.368 : en:Chapter 15
00:54:38.483 : en:Chapter 16
00:59:25.520 : en:Chapter 17
01:01:04.744 : en:Chapter 18
01:06:44.000 : en:Chapter 19
01:10:50.329 : en:Chapter 20
01:13:06.131 : en:Chapter 21
01:17:41.365 : en:Chapter 22
01:21:53.742 : en:Chapter 23
01:24:12.422 : en:Chapter 24
01:27:24.530 : en:Chapter 25
01:29:39.082 : en:Chapter 26
01:34:45.680 : en:Chapter 27
01:38:32.907 : en:Chapter 28
01:43:35.584 : en:Chapter 29
Скріншоти




Джерело: &
Особиста оцінка: 0 - не дивився


 Трекер:    Зареєстрований   

Завантажити / скачати фільм українською



відео для новачків



 Зареєстрований:   2018-07-26 09:16
 Розмір:   2.76 GB 
 Оцінка фільму:   9.2/10 (Голосів: 19)
   
bot 
робот


З нами з: 30.09.07
Востаннє: 26.05.05
Повідомлень: 22466

2018-07-26 09:16  
Тему перенесено з Анонси релізів до форуму Фільми


staf777

vavlap 
Свій


З нами з: 24.01.15
Востаннє: 11.11.19
Повідомлень: 82

2018-07-29 19:20  
Ідея фільму тупа і дурна. "Галактична федерація планет відправляє на Землю посланця Клаату з попередженням: якщо уряди не припинять знищувати природу, людство буде знищено." Хто дав право галактичній федерації планет диктувати Землянам як їм жити? І чому Галактична фередація планет не запобігла зіткненню планети Земля із юкатанським метеоритом, що призвело до винищення природи Землі у набагато більших масштабах, ніж зараз через вплив людства на природу? А самі методи "збереження природи", що застосовує галактична федерація планет - це прояв міжпланетного гуманізму чи як?
Ваш часовий пояс: GMT + 2 Години

Нова тема   Відповісти