Скляний будинок 2: Смертельна опіка / Glass House: The Good Mother (2006) 1080p Ukr/Eng | Sub Eng

Нові коментарі

Нова тема   Відповісти
Автор Повідомлення
Anonymous 







2018-07-25 20:57  
Скляний будинок 2: Смертельна опіка / Glass House: The Good Mother (2006) 1080p Ukr/Eng | Sub Eng

Скляний будинок 2: Смертельна опіка / Glass House: The Good Mother (2006) 1080p Ukr/Eng | Sub Eng


Жанр: кримінальний, драма, містика
Країна: США



Кінокомпанія: Destination Films, Shouldn't Throw Stones
Режисер: Стів Антін
Актори: Енджі Гермон, Джоел Ґретч, Джордан Гінсон, Боббі Коулмен, Джейсон Лондон, Таша Сміт, Тім Куні, Адам Томей, Роберт Меррілл

Сюжет:
Фільм оповідає історію підлітків Ітана та Еббі, які втратили свої батьків. Брат і сестра вважали це найстрашнішою трагедією у своєму житті, але вони дуже сильно помилилися. На перший погляд здавалося, що життя налагоджується: дітей усиновили дуже хороші люди. Ів і Реймонд Ґуд вважалися прекрасною, гідною парою, у якої чудова репутація.
Спочатку Ів і Реймонд здавалися просто чудовими батьками, які піклуються про своїх прийомних дітей, розуміють їх і дуже до них добрі. Але через деякий час сім'я переїжджає в заміський будинок. Тут, де ніхто нічого не бачить, далеко від сторонніх очей, колись ідеальні батьки починають поводитися дуже дивно. Діти зрозуміють, що за чарівною посмішкою батьків ховається злість, а в їх грудях б'ються чорні серця.


Тривалість: 01:33:36
Якість: 1080p [Amazon]
Відео:
кодек:
розмір кадру: 1920х1080
бітрейт: 13,7 Mb/s

Аудіо # 1:
мова: українська
переклад: багатоголосий закадровий
кодек: 2.0
бітрейт: 192 кб/с

Аудіо # 2:
мова: англійська
переклад: оригінал
кодек: E- 5.1
бітрейт: 640 кб/с

Субтитри # 1-2:
мова: англійська
тип: програмні (м'які)
формат: *.srt
Info
General
Unique ID : 200853761813660199386594342128335609602 (0x971B0705C82B5CD1A01886F0D9A65F02)
Format :
Format version : Version 4 / Version 2
File size : 9.66 GiB
Duration : 1 h 33 min
Overall bit rate mode : Variable
Overall bit rate : 14.8 Mb/s
Encoded date : UTC 2018-07-25 17:48:18
Writing application : v6.1.0 ('Old Devil') built on Mar 4 2013 09:10:42
Writing library : libebml v1.3.0 + v1.4.0

Video
ID : 1
Format : AVC
Format/Info : Advanced Video Codec
Format profile : [email protected]
Format settings : CABAC / 4 Ref Frames
Format settings, CABAC : Yes
Format settings, ReFrames : 4 frames
Codec ID : V_MPEG4/ISO/AVC
Duration : 1 h 33 min
Bit rate mode : Variable
Bit rate : 13.7 Mb/s
Maximum bit rate : 15.0 Mb/s
Width : 1 920 pixels
Height : 1 080 pixels
Display aspect ratio : 16:9
Frame rate mode : Constant
Frame rate : 23.976 (24000/1001) FPS
Color space : YUV
Chroma subsampling : 4:2:0
Bit depth : 8 bits
Scan type : Progressive
Bits/(Pixel*Frame) : 0.275
Stream size : 8.93 GiB (92%)
Writing library : core 148 r2623 d5b2374
Encoding settings : cabac=1 / ref=4 / deblock=1:-1:-1 / analyse=0x3:0x133 / me=umh / subme=9 / psy=1 / psy_rd=1.00:0.15 / mixed_ref=1 / me_range=24 / chroma_me=1 / trellis=2 / 8x8dct=1 / cqm=0 / deadzone=21,11 / fast_pskip=1 / chroma_qp_offset=-3 / threads=34 / lookahead_threads=5 / sliced_threads=0 / nr=150 / decimate=1 / interlaced=0 / bluray_compat=0 / constrained_intra=0 / bframes=8 / b_pyramid=2 / b_adapt=2 / b_bias=0 / direct=3 / weightb=1 / open_gop=0 / weightp=2 / keyint=120 / keyint_min=61 / scenecut=0 / intra_refresh=0 / rc_lookahead=120 / rc=crf / mbtree=1 / crf=18.0 / qcomp=0.60 / qpmin=0 / qpmax=69 / qpstep=4 / vbv_maxrate=15000 / vbv_bufsize=31250 / crf_max=0.0 / nal_hrd=vbr / filler=0 / ip_ratio=1.40 / aq=3:1.00
Default : Yes
Forced : No
Color range : Limited
Color primaries : BT.709
Transfer characteristics : BT.709
Matrix coefficients : BT.709
Statistics Tags Issue : v13.0.0 ('The Juggler') 64bit 2018-07-21 22:11:08 / v6.1.0 ('Old Devil') built on Mar 4 2013 09:10:42 2018-07-25 17:48:18
FromStats_BitRate : 13946289
FromStats_Duration : 01:33:36.111000000
FromStats_FrameCount : 134652
FromStats_StreamSize : 9790488857

Audio #1
ID : 2
Format : AC-3
Format/Info : Audio Coding 3
Codec ID : A_AC3
Duration : 1 h 33 min
Bit rate mode : Constant
Bit rate : 192 kb/s
Channel(s) : 2 channels
Channel positions : Front: L R
Sampling rate : 48.0 kHz
Frame rate : 31.250 FPS (1536 SPF)
Bit depth : 16 bits
Compression mode : Lossy
Stream size : 129 MiB (1%)
Title : UKR (ТРК Україна)
Language : Ukrainian
Service kind : Complete Main
Default : Yes
Forced : Yes

Audio #2
ID : 3
Format : E-AC-3
Format/Info : Enhanced Audio Coding 3
Codec ID : A_EAC3
Duration : 1 h 33 min
Bit rate mode : Constant
Bit rate : 640 kb/s
Channel(s) : 6 channels
Channel positions : Front: L C R, Side: L R, LFE
Sampling rate : 48.0 kHz
Frame rate : 187.500 FPS (256 SPF)
Compression mode : Lossy
Stream size : 428 MiB (4%)
Language : English
Service kind : Complete Main
Default : No
Forced : No
Statistics Tags Issue : v13.0.0 ('The Juggler') 64bit 2018-07-21 22:11:08 / v6.1.0 ('Old Devil') built on Mar 4 2013 09:10:42 2018-07-25 17:48:18
FromStats_BitRate : 640000
FromStats_Duration : 01:33:36.064000000
FromStats_FrameCount : 175502
FromStats_StreamSize : 449285120

Text #1
ID : 4
Format : UTF-8
Codec ID : S_TEXT/UTF8
Codec ID/Info : UTF-8 Plain Text
Language : English
Default : No
Forced : No
Statistics Tags Issue : v13.0.0 ('The Juggler') 64bit 2018-07-21 22:11:08 / v6.1.0 ('Old Devil') built on Mar 4 2013 09:10:42 2018-07-25 17:48:18
FromStats_BitRate : 30
FromStats_Duration : 01:27:14.763000000
FromStats_FrameCount : 717
FromStats_StreamSize : 19810

Text #2
ID : 5
Format : UTF-8
Codec ID : S_TEXT/UTF8
Codec ID/Info : UTF-8 Plain Text
Title : SDH
Language : English
Default : No
Forced : No
Statistics Tags Issue : v13.0.0 ('The Juggler') 64bit 2018-07-21 22:11:08 / v6.1.0 ('Old Devil') built on Mar 4 2013 09:10:42 2018-07-25 17:48:18
FromStats_BitRate : 32
FromStats_Duration : 01:29:28.563000000
FromStats_FrameCount : 824
FromStats_StreamSize : 21915
Скріншоти






Подяка за українську доріжку п. ninenine та xslim
Особиста подяка пану denixx за надану матеріальну допомогу на підтримку цього і майбутніх релізів.
Джерело:


 Трекер:    Зареєстрований   

Завантажити / скачати фільм українською



відео для новачків



 Зареєстрований:   2018-07-25 20:57
 Розмір:   9.66 GB 
 Оцінка фільму:   5/10 (Голосів: 1)
   
hetzendorf 
Попереджень: 2
Попереджень: 2 


З нами з: 23.07.15
Востаннє: 23.04.19
Повідомлень: 2051

2019-03-03 00:45  
Посередній доволі нудний фільм. Попередня версія трохи краща.
5/10

Ваш часовий пояс: GMT + 2 Години

Нова тема   Відповісти