Спогад / The Recall (2017) 720p Ukr/Eng

Нові коментарі

Нова тема   Відповісти
Автор Повідомлення
staf777 
Відео Гуртом - підтримка та поширення
Відео Гуртом - підтримка та поширення


З нами з: 16.11.16
Востаннє: 26.09.20
Повідомлень: 4047

2018-07-25 18:05  
Спогад / The Recall (2017) 720p Ukr/Eng

Спогад / The Recall (2017) 720p Ukr/Eng


Жанр: жахи, фантастика, трилер
Країна: Канада



Кінокомпанія: Bridgegate Pictures
Режисер: Мауро Борреллі
Актори: ЕрДжей Мітт, Веслі Снайпс, Джедідайя Гудакр, Ніко Пепадж, Грехем Шилз, Віселос Реон Шеннон, Еліша Крііс, Лаура Білгері

Сюжет:
П'ятеро друзів збираються відпочити у відокремленому будинку біля озера, і як раз в цей час на Землю нападають інопланетні загарбники. І цілі у них зовсім не гуманні. На щастя, в лісі знайшовся мисливець, який не дасть так просто образити людство.


Тривалість: 01:31:07
Якість: 720p
Відео:
кодек:
розмір кадру: 1280 х 536
бітрейт: 5357 кб/с

Аудіо # 1:
мова: українська
переклад: багатоголосий закадровий
кодек: 2.0
бітрейт: 192 кб/с

Аудіо # 2:
мова: англійська
переклад: оригінал
кодек: 5.1
бітрейт: 1509 кб/с
Info
General
Unique ID : 170873690262524049394206272525574479978 (0x808D135FA9C6F6A5A7BF52F99E52206A)
Complete name : G:\Майбутні релізи\The Recall (2017) BDRip720p [UA-ENG] [Hurtom].
Format :
Format version : Version 4 / Version 2
File size : 4.49 GiB
Duration : 1 h 31 min
Overall bit rate : 7 058 kb/s
Movie name : The Recall (2017) BDRip720p [UA-ENG] [Hurtom]
Encoded date : UTC 2018-07-25 15:12:02
Writing application : v24.0.0 ('Beyond The Pale') 64-bit
Writing library : libebml v1.3.6 + v1.4.9
Cover : Yes
Attachments : cover.jpg

Video
ID : 1
Format : AVC
Format/Info : Advanced Video Codec
Format profile : [email protected]
Format settings : CABAC / 5 Ref Frames
Format settings, CABAC : Yes
Format settings, ReFrames : 5 frames
Codec ID : V_MPEG4/ISO/AVC
Duration : 1 h 31 min
Bit rate : 5 357 kb/s
Width : 1 280 pixels
Height : 536 pixels
Display aspect ratio : 2.40:1
Frame rate mode : Constant
Frame rate : 23.976 (24000/1001) FPS
Color space : YUV
Chroma subsampling : 4:2:0
Bit depth : 8 bits
Scan type : Progressive
Bits/(Pixel*Frame) : 0.326
Stream size : 3.41 GiB (76%)
Writing library : core 152 r2851kMod ba24899
Encoding settings : cabac=1 / ref=5 / deblock=1:-3:-3 / analyse=0x3:0x133 / me=umh / subme=8 / psy=1 / fade_compensate=0.00 / psy_rd=1.00:0.00 / mixed_ref=1 / me_range=16 / chroma_me=1 / trellis=1 / 8x8dct=1 / cqm=0 / deadzone=21,11 / fast_pskip=0 / chroma_qp_offset=-2 / threads=6 / lookahead_threads=1 / sliced_threads=0 / nr=0 / decimate=1 / interlaced=0 / bluray_compat=0 / constrained_intra=0 / bframes=3 / b_pyramid=2 / b_adapt=1 / b_bias=0 / direct=3 / weightb=1 / open_gop=0 / weightp=2 / keyint=250 / keyint_min=23 / scenecut=40 / intra_refresh=0 / rc_lookahead=50 / rc=2pass / mbtree=1 / bitrate=5357 / ratetol=1.0 / qcomp=0.60 / qpmin=0 / qpmax=69 / qpstep=4 / cplxblur=20.0 / qblur=0.5 / vbv_maxrate=62500 / vbv_bufsize=78125 / nal_hrd=none / filler=0 / ip_ratio=1.40 / aq=1:1.00
Default : Yes
Forced : No

Audio #1
ID : 2
Format : AC-3
Format/Info : Audio Coding 3
Codec ID : A_AC3
Duration : 1 h 31 min
Bit rate mode : Constant
Bit rate : 192 kb/s
Channel(s) : 2 channels
Channel positions : Front: L R
Sampling rate : 48.0 kHz
Frame rate : 31.250 FPS (1536 SPF)
Bit depth : 16 bits
Compression mode : Lossy
Stream size : 125 MiB (3%)
Title : [UA-MVO-2+2]
Language : Ukrainian
Service kind : Complete Main
Default : Yes
Forced : Yes

Audio #2
ID : 3
Format :
Format/Info : Digital Theater Systems
Codec ID : A_DTS
Duration : 1 h 31 min
Bit rate mode : Constant
Bit rate : 1 509 kb/s
Channel(s) : 6 channels
Channel positions : Front: L C R, Side: L R, LFE
Sampling rate : 48.0 kHz
Frame rate : 93.750 FPS (512 SPF)
Bit depth : 24 bits
Compression mode : Lossy
Stream size : 983 MiB (21%)
Language : English
Default : No
Forced : No

Menu
00:00:00.000 : en:00:00:00.000
00:10:38.388 : en:00:10:38.388
00:28:34.254 : en:00:28:34.254
00:44:13.818 : en:00:44:13.818
00:58:46.273 : en:00:58:46.273
01:18:29.788 : en:01:18:29.788
Скріншоти




Запис звуку з ТБ - Bohdan237, синхронізація - drop_plz.
Джерело: &
Особиста оцінка: 0 - не дивився


 Трекер:    Зареєстрований   

Завантажити / скачати фільм українською



відео для новачків



 Зареєстрований:   2018-07-25 18:32
 Розмір:   4.49 GB 
 Оцінка фільму:   6.6/10 (Голосів: 8)
   
Інші релізи
   Спогад / The Recall (2017) 1080p Ukr/Eng staf777  3 / 0   6.68 GB   2018-07-25 22:24 
   Спогад / The Recall (2017) Remux 1080p Ukr/Eng staf777  1 / 0   14.17 GB   2018-07-21 23:29 
   Спогад / The Recall (2017) drop_plz  4 / 0   1.46 GB   2018-07-21 07:01 
Ваш часовий пояс: GMT + 2 Години

Нова тема   Відповісти