Селище янголів (Сезон 1) / Ängelby (Season 1) (2015) 720p Ukr/Swe

Нові коментарі

Нова тема   Відповісти
Автор Повідомлення
Anonymous 







2018-07-25 16:46  
Селище янголів (Сезон 1) / Ängelby (Season 1) (2015) 720p Ukr/Swe

Селище янголів (Сезон 1) / Ängelby (Season 1) (2015) 720p Ukr/Swe


Жанр: драма, містика, трилер, детектив
Країна: Швеція



Кінокомпанія: Sveriges Television (SVT), Tre Vänner Produktion AB, Film i Väst
Режисер: Йохан Кіндблом (Johan Kindblom), Томас Тівемарк (Tomas Tivemark)
Актори: Міа Скярінґер (Mia Skäringer), Горан Рагнерстам (Göran Ragnerstam), Джоел Спіра (Joel Spira), Міхаела Торсен (Michaela Thorsén), Анна Бєлкеруд (Anna Bjelkerud), Аманда Оомс (Amanda Ooms), Лінда Молін (Linda Molin) та інші

Сюжет:
Віра, мати двох дітей, переживає розлучення і втрачає роботу. На щастя, їй запропонували нову роботу в невеличкому містечку Елґельбю і, з надією почати життя з чистого аркуша, вона погоджується на переїзд туди. Але Елґельбю - лише на перший погляд тихе і спокійне селище, у його мешканців є свої секрети і чужинців тут не люблять.


Тривалість: 1 серія: ~44 хв. (цілком серій: 12)
Перелік серій
Епізод #1.1
Епізод #1.2
Епізод #1.3
Епізод #1.4
Епізод #1.5
Епізод #1.6
Епізод #1.7
Епізод #1.8
Епізод #1.9
Епізод #1.10
Епізод #1.11
Епізод #1.12
Якість:
Відео:
кодек:
розмір кадру: 1280 х 720
бітрейт: 1584 кб/с

Аудіо # 1:
мова: українська
переклад: двоголосий закадровий
кодек: 2.0
бітрейт: 192 кб/с

Аудіо # 2:
мова: шведська
переклад: оригінал
кодек: 2.0
бітрейт: 96 кб/с

Джерело озвучення:
Info
General
Unique ID : 56028705221031755790326625813352420994 (0x2A26BC71E786114E44852D7582D01682)
Complete name : E:\Support\Ängelby (Season 1) [, 720p, Ukr, Swe]\Ängelby S01E01 [, 720p, Ukr, Swe].
Format :
Format version : Version 4 / Version 2
File size : 590 MiB
Duration : 44 min 5 s
Overall bit rate : 1 869 kb/s
Encoded date : UTC 2018-07-22 14:50:57
Writing application : v25.0.0 ('Prog Noir') 64-bit
Writing library : libebml v1.3.6 + v1.4.9

Video
ID : 1
Format : AVC
Format/Info : Advanced Video Codec
Format profile : [email protected]
Format settings : CABAC / 4 Ref Frames
Format settings, CABAC : Yes
Format settings, ReFrames : 4 frames
Codec ID : V_MPEG4/ISO/AVC
Duration : 44 min 5 s
Bit rate mode : Constant
Bit rate : 1 584 kb/s
Width : 1 280 pixels
Height : 720 pixels
Display aspect ratio : 16:9
Frame rate mode : Constant
Frame rate : 25.000 FPS
Color space : YUV
Chroma subsampling : 4:2:0
Bit depth : 8 bits
Scan type : Progressive
Bits/(Pixel*Frame) : 0.069
Stream size : 498 MiB (85%)
Default : Yes
Forced : No
Color range : Limited
Color primaries : BT.709
Transfer characteristics : BT.709
Matrix coefficients : BT.709

Audio #1
ID : 2
Format : AC-3
Format/Info : Audio Coding 3
Codec ID : A_AC3
Duration : 44 min 5 s
Bit rate mode : Constant
Bit rate : 192 kb/s
Channel(s) : 2 channels
Channel positions : Front: L R
Sampling rate : 48.0 kHz
Frame rate : 31.250 FPS (1536 SPF)
Bit depth : 16 bits
Compression mode : Lossy
Delay relative to video : -40 ms
Stream size : 60.6 MiB (10%)
Language : Ukrainian
Service kind : Complete Main
Default : Yes
Forced : No

Audio #2
ID : 3
Format :
Format/Info : Advanced Audio Codec
Format profile : HE- / LC
Format settings : Implicit
Codec ID : A_AAC-2
Duration : 44 min 5 s
Bit rate : 96.0 kb/s
Channel(s) : 2 channels
Channel positions : Front: L R
Sampling rate : 48.0 kHz / 24.0 kHz
Frame rate : 23.438 FPS (1024 SPF)
Compression mode : Lossy
Delay relative to video : -40 ms
Stream size : 29.9 MiB (5%)
Language : Swedish
Default : No
Forced : No
Скріншоти
Джерело: &
Особиста оцінка: 7 - трохи дивакувате кіно, але непогане


Бронзовий реліз (на рейтинг впливає 75% завантаженого)
 Трекер:    Зареєстрований   

Завантажити / скачати серіал українською



відео для новачків



 Зареєстрований:   2018-07-25 16:46
 Розмір:   6.81 GB 
 Оцінка серіалу:   9.6/10 (Голосів: 7)
   
Anonymous 







2018-07-25 16:47  
Відео, на жаль, слабеньке, але кращого знайти не вдалося.
leicheman 
Відео Гуртом - фільмокрай
Відео Гуртом - фільмокрай


З нами з: 03.07.14
Востаннє: 04.12.20
Повідомлень: 5705

2018-07-25 18:20  
на шивдкоруч зліпив постер, якщо сподобаєьтья можна використати.
постер
ще один
постер

-_-В_E_N_D_Е_R-_- 
Забанено
Забанено


З нами з: 11.07.18
Востаннє: 23.08.18
Повідомлень: 528

2018-07-25 19:11  
Гадаю варто дописати в заголовку 720p
Anonymous 







2018-07-25 19:20  
-_-В_E_N_D_Е_R-_- написано:
Гадаю варто дописати в заголовку 720p

Дякую, провтикав.

Додано через 4 хвилини 38 секунд:

leicheman
Дякую, але якщо українізовувати, то вже українізовувати до кінця Happy.

До речі, серіал показували з українізованими титрами (чомусь лише початковими, кінцеві залишили шведською), але робити ріпи з записів ТБ сенсу не бачу.

leicheman 
Відео Гуртом - фільмокрай
Відео Гуртом - фільмокрай


З нами з: 03.07.14
Востаннє: 04.12.20
Повідомлень: 5705

2018-07-25 20:39  
Anonymous написано:
то вже українізовувати до кінця

я не спец, але якось так =)
постери



igor911 
Модератор відео


З нами з: 18.01.08
Востаннє: 04.12.20
Повідомлень: 15087

2018-07-26 07:48  
Цитата:
Жанр: містика

На imdb зазначено Mystery - це детектив, а не містика.

Anonymous 







2018-07-26 10:04  
igor911 написано:
На imdb зазначено Mystery - це детектив, а не містика.

Хоч там і переважно люди загадки підкидають, але і надприродне теж є. Повернув містику назад.

zaika 
VIP


З нами з: 01.07.12
Востаннє: 03.12.20
Повідомлень: 1243

2018-09-11 06:45  
Схоже в режисерів цього серіалу авторитетом є Девід Лінч. 9/10.
Ваш часовий пояс: GMT + 2 Години

Нова тема   Відповісти