Подарунок на Різдво / Jingle All the Way (1996) Remux 1080p 2xUkr/Eng | sub Eng

Нові коментарі

Нова тема   Відповісти
Автор Повідомлення
staf777 
Попереджень: 1
Попереджень: 1 


З нами з: 16.11.16
Востаннє: 19.12.18
Повідомлень: 1939

2018-07-25 08:21  
Подарунок на Різдво / Jingle All the Way (1996) Remux 1080p 2xUkr/Eng | sub Eng

Подарунок на Різдво / Jingle All the Way (1996) Remux 1080p 2xUkr/Eng | sub Eng


Жанр: сімейний, пригодницький, комедія
Країна: США



Кінокомпанія: Twentieth Century-Fox Film Corporation
Режисер: Браян Левант
Актори: Арнольд Шварценеґґер, Сінбад, Філ Гартман, Ріта Вілсон, Роберт Конрадт, Джеймс Белуші та інші.

Сюжет:
Заклопотаний бізнесмен Говард Ленгстон приділяє мало уваги власній родині, особливу сину. Щоб виправити становище і повернути любов рідних, він вирішує подарувати на Різдво хлопчику Турбомена – найпопулярнішу іграшку сезону...


Тривалість: 01:29:32
Якість: Remux 1080p
Відео:
кодек:
розмір кадру: 1920x1080
бітрейт: 31 Mб/с

Аудіо # 1:
мова: українська
переклад: двоголосий закадровий
кодек: 2.0
бітрейт: 192 кб/с

Аудіо # 2:
мова: українська
переклад: двоголосий закадровий
кодек: 2.0
бітрейт: 192 кб/с

Аудіо # 3:
мова: англійська
переклад: оригінал
кодек: -HD MA 5.1
бітрейт: 4381 кб/с

Субтитри:
мова: англійська
тип: пререндерні
формат: *.pgs
Info
General
Unique ID : 336700104609339737607915232284828470464 (0xFD4E14D4F64E241BF372D49BE3E78CC0)
Complete name : D:\Фільми в HD\Комедія\Jingle All the Way (1996) Remux 1080p [2xUKR_ENG] [Hurtom].
Format :
Format version : Version 4 / Version 2
File size : 22.4 GiB
Duration : 1 h 29 min
Overall bit rate mode : Variable
Overall bit rate : 35.8 Mb/s
Movie name : Jingle All the Way (1996) Remux 1080p [2xUKR_ENG] [Hurtom]
Encoded date : UTC 2018-07-27 06:30:36
Writing application : v24.0.0 ('Beyond The Pale') 64-bit
Writing library : libebml v1.3.6 + v1.4.9
Cover : Yes
Attachments : cover.jpg

Video
ID : 1
Format : AVC
Format/Info : Advanced Video Codec
Format profile : [email protected]
Format settings : CABAC / 4 Ref Frames
Format settings, CABAC : Yes
Format settings, ReFrames : 4 frames
Codec ID : V_MPEG4/ISO/AVC
Duration : 1 h 29 min
Bit rate mode : Variable
Bit rate : 31.0 Mb/s
Maximum bit rate : 32.0 Mb/s
Width : 1 920 pixels
Height : 1 080 pixels
Display aspect ratio : 16:9
Frame rate mode : Constant
Frame rate : 23.976 (24000/1001) FPS
Color space : YUV
Chroma subsampling : 4:2:0
Bit depth : 8 bits
Scan type : Progressive
Bits/(Pixel*Frame) : 0.623
Stream size : 19.4 GiB (87%)
Default : Yes
Forced : No

Audio #1
ID : 2
Format : AC-3
Format/Info : Audio Coding 3
Codec ID : A_AC3
Duration : 1 h 29 min
Bit rate mode : Constant
Bit rate : 192 kb/s
Channel(s) : 2 channels
Channel positions : Front: L R
Sampling rate : 48.0 kHz
Frame rate : 31.250 FPS (1536 SPF)
Bit depth : 16 bits
Compression mode : Lossy
Stream size : 123 MiB (1%)
Title : [UA-DVO-1+1]
Language : Ukrainian
Service kind : Complete Main
Default : Yes
Forced : Yes

Audio #2
ID : 3
Format : AC-3
Format/Info : Audio Coding 3
Codec ID : A_AC3
Duration : 1 h 29 min
Bit rate mode : Constant
Bit rate : 192 kb/s
Channel(s) : 2 channels
Channel positions : Front: L R
Sampling rate : 48.0 kHz
Frame rate : 31.250 FPS (1536 SPF)
Bit depth : 16 bits
Compression mode : Lossy
Stream size : 123 MiB (1%)
Title : [UA-DVO-Новий канал]
Language : Ukrainian
Service kind : Complete Main
Default : No
Forced : No

Audio #3
ID : 4
Format :
Format/Info : Digital Theater Systems
Format profile : MA / Core
Codec ID : A_DTS
Duration : 1 h 29 min
Bit rate mode : Variable / Constant
Bit rate : 4 381 kb/s / 1 509 kb/s
Channel(s) : 6 channels
Channel positions : Front: L C R, Side: L R, LFE
Sampling rate : 48.0 kHz
Frame rate : 93.750 FPS (512 SPF)
Bit depth : 24 bits
Compression mode : Lossless / Lossy
Stream size : 2.74 GiB (12%)
Language : English
Default : No
Forced : No

Text
ID : 5
Format : PGS
Muxing mode : zlib
Codec ID : S_HDMV/PGS
Codec ID/Info : Picture based subtitle format used on BDs/HD-DVDs
Duration : 1 h 28 min
Bit rate : 34.7 kb/s
Count of elements : 2452
Stream size : 22.1 MiB (0%)
Language : English
Default : No
Forced : No
Скріншоти



Запис з ТБ: olgaya, karvai0 та ua2004
Синхронізація: robotron005
Постер: eastern_sun
Джерело: &
Особиста оцінка: 8 - мені сподобалося


Золотий реліз (завантажене не впливає на рейтинг)
 Трекер:    Зареєстрований   

Завантажити / скачати фільм українською



відео для новачків



 Зареєстрований:   2018-07-27 09:17
 Розмір:   22.37 GB 
 Оцінка фільму:   9/10 (Голосів: 2)
   
bot 
робот


З нами з: 30.09.07
Востаннє: 26.05.05
Повідомлень: 20375

2018-07-27 09:14  
Тему перенесено з Анонси релізів до форуму Фільми в HD


staf777

explosiveua 
Новенький


З нами з: 12.06.11
Востаннє: 15.12.18
Повідомлень: 8

2018-09-10 20:07  
щєб Сам удома в бдремукс.. Happy
igor911 
Відео Гуртом
Відео Гуртом


З нами з: 18.01.08
Востаннє: 19.12.18
Повідомлень: 11620

2018-09-10 20:38  
explosiveua написано:
щєб Сам удома в бдремукс

explosiveua профіль написано:
Активні торренти:
Роздає - немає

ще б було кому їх підтримувати, то може б і викладали більше ремуксів.

Ваш часовий пояс: GMT + 2 Години

Нова тема   Відповісти