Фарґо (Фарго) / Fargo (1996) mini 1080p H.265 2xUkr/Eng | Sub Ukr/Eng

Нові коментарі

Нова тема   Відповісти
Автор Повідомлення
ukr_anonymous 
Попереджень: 1
Попереджень: 1 


З нами з: 17.04.18
Востаннє: 17.10.18
Повідомлень: 222

2018-07-24 16:09  
Фарґо (Фарго) / Fargo (1996) mini 1080p H.265 2xUkr/Eng | Sub Ukr/Eng

Фарґо (Фарго) / Fargo (1996) mini 1080p H.265 2xUkr/Eng | Sub Ukr/Eng


Жанр: трилер, драма
Країна: США



Кінокомпанія: Metro Goldwyn Mayer
Режисер: Ітан Коен, Джоель Коен (Ethan Coen, Joel Coen)
Актори: Франсес МакДорманд (Frances McDormand), Вільям Г. Мейсі (William H. Macy), Стів Бушемі (Steve Buscemi), Гарв Преснел (Harve Presnell), Пітер Стормер (Peter Stormare), Крістін Рудруд (Kristin Rudrüd), Тоні Денмен (Tony Denman), Ґері Г'юстон (Gary Houston), Джон Керол Лінч (John Carroll Lynch) та інші.

Сюжет:
Якщо все дозволено, якщо немає меж насильству, викрадення власної дружини – чудова думка. Тоді жорстокість виривається на волю і заливає весь світ кров’ю. Тоді ланцюг кривавих убивств зростає і немає повернення до нормального життя, а єдине, що пов'язує людей – смерть. Виклик убивцям кидає відважна жінка поліцейський і страшною буде розплата....


Тривалість: 01:38:15
Якість:
Відео:
кодек: H.265 (HEVC)
розмір кадру: 1920 х 1040
бітрейт: 5 206 кб/с
бітова глибина: 10 біт
Увага! Перед завантаженням переконайтесь, що ваш пристрій відтворення (та/або ПЗ) підтримує H.265 (HEVC)

Аудіо # 1:
мова: українська | Студія «Гуртом»
переклад: багатоголосий закадровий
кодек: 5.1
бітрейт: 1 509 кб/с

Аудіо # 2:
мова: українська
переклад: багатоголосий закадровий
кодек: 2.0
бітрейт: 192 кб/с

Аудіо # 3:
мова: англійська
переклад: оригінал
кодек: 5.1
бітрейт: 336 кб/с

Аудіо # 4:
мова: англійська - Commentary w/Roger
переклад: оригінал
кодек: 2.0
бітрейт: 59.7 кб/с

Субтитри # 1:
мова: українська (субтитри набрані з перекладу озвучення)
тип: програмні (м'які)
формат: *.srt (висловлюємо подяку Alinea за допомогу)

Субтитри # 2-4:
мова: англійська
тип: програмні (м'які)
формат: *.srt
Info
General
Unique ID : 36582714256743740554091863467584809306 (0x1B8593115821AA74CA97F6FED522695A)
Complete name : E:\Video\Fargo (1996) RM 1080p H.265 [2xUKR_ENG].
Format :
Format version : Version 4 / Version 2
File size : 5.01 GiB
Duration : 1 h 38 min
Overall bit rate : 7 308 kb/s
Movie name : Fargo (1996)
Encoded date : UTC 2018-07-24 12:55:59
Writing application : v22.0.0 ('At The End Of The World') 64-bit
Writing library : libebml v1.3.5 + v1.4.8
Cover : Yes
Attachments : Cover.jpg

Video
ID : 1
Format : HEVC
Format/Info : High Efficiency Video Coding
Format profile : Main [email protected]@Main
Codec ID : V_MPEGH/ISO/HEVC
Duration : 1 h 38 min
Bit rate : 5 206 kb/s
Width : 1 920 pixels
Height : 1 040 pixels
Display aspect ratio : 1.85:1
Frame rate mode : Constant
Frame rate : 23.976 (24000/1001) FPS
Color space : YUV
Chroma subsampling : 4:2:0
Bit depth : 10 bits
Bits/(Pixel*Frame) : 0.109
Stream size : 3.57 GiB (71%)
Writing library : x265 2.8+19-bcdc610cf5f0:[Windows][GCC 7.3.0][64 bit] 10bit
Encoding settings : cpuid=1111039 / frame-threads=3 / numa-pools=8 / wpp / no-pmode / no-pme / no-psnr / no-ssim / log-level=2 / input-csp=1 / input-res=1920x1040 / interlace=0 / total-frames=141330 / level-idc=0 / high-tier=1 / uhd-bd=0 / ref=4 / no-allow-non-conformance / no-repeat-headers / annexb / no-aud / no-hrd / info / hash=0 / no-temporal-layers / open-gop / min-keyint=23 / keyint=250 / gop-lookahead=0 / bframes=4 / b-adapt=2 / b-pyramid / bframe-bias=0 / rc-lookahead=25 / lookahead-slices=4 / scenecut=40 / radl=0 / no-intra-refresh / ctu=64 / min-cu-size=8 / rect / no-amp / max-tu-size=32 / tu-inter-depth=1 / tu-intra-depth=1 / limit-tu=0 / rdoq-level=2 / dynamic-rd=0.00 / no-ssim-rd / signhide / no-tskip / nr-intra=0 / nr-inter=0 / no-constrained-intra / strong-intra-smoothing / max-merge=3 / limit-refs=3 / limit-modes / me=3 / subme=3 / merange=57 / temporal-mvp / weightp / no-weightb / no-analyze-src-pics / deblock=0:0 / sao / no-sao-non-deblock / rd=4 / no-early-skip / rskip / no-fast-intra / no-tskip-fast / no-cu-lossless / no-b-intra / no-splitrd-skip / rdpenalty=0 / psy-rd=2.00 / psy-rdoq=1.00 / no-rd-refine / no-lossless / cbqpoffs=0 / crqpoffs=0 / rc=abr / bitrate=5208 / qcomp=0.60 / qpstep=4 / stats-write=0 / stats-read=2 / cplxblur=20.0 / qblur=0.5 / ipratio=1.40 / pbratio=1.30 / aq-mode=3 / aq-strength=1.00 / cutree / zone-count=0 / no-strict-cbr / qg-size=32 / no-rc-grain / qpmax=69 / qpmin=0 / no-const-vbv / sar=0 / overscan=0 / videoformat=5 / range=0 / colorprim=2 / transfer=2 / colormatrix=2 / chromaloc=0 / display-window=0 / max-cll=0,0 / min-luma=0 / max-luma=1023 / log2-max-poc-lsb=8 / vui-timing-info / vui-hrd-info / slices=1 / no-opt-qp-pps / no-opt-ref-list-length-pps / multi-pass-opt-rps / scenecut-bias=0.05 / no-opt-cu-delta-qp / aq-motion / no-hdr / no-hdr-opt / no-dhdr10-opt / no-idr-recovery-sei / analysis-reuse-level=5 / scale-factor=0 / refine-intra=0 / refine-inter=0 / refine-mv=0 / no-limit-sao / ctu-info=0 / no-lowpass-dct / refine-mv-type=0 / copy-pic=1 / max-ausize-factor=1.0 / no-dynamic-refine / no-single-sei
Default : Yes
Forced : No

Audio #1
ID : 2
Format :
Format/Info : Digital Theater Systems
Codec ID : A_DTS
Duration : 1 h 38 min
Bit rate mode : Constant
Bit rate : 1 509 kb/s
Channel(s) : 6 channels
Channel positions : Front: L C R, Side: L R, LFE
Sampling rate : 48.0 kHz
Frame rate : 93.750 FPS (512 SPF)
Bit depth : 24 bits
Compression mode : Lossy
Stream size : 1.04 GiB (21%)
Title : 5.1 @ 1536 kbps - озвучено Студією «Hurtom» для Hurtom.com
Language : Ukrainian
Default : Yes
Forced : Yes

Audio #2
ID : 3
Format : AC-3
Format/Info : Audio Coding 3
Codec ID : A_AC3
Duration : 1 h 38 min
Bit rate mode : Constant
Bit rate : 192 kb/s
Channel(s) : 2 channels
Channel positions : Front: L R
Sampling rate : 48.0 kHz
Frame rate : 31.250 FPS (1536 SPF)
Bit depth : 16 bits
Compression mode : Lossy
Stream size : 135 MiB (3%)
Title : 2.0 @ 192 kbps - AMC
Language : Ukrainian
Service kind : Complete Main
Default : No
Forced : No

Audio #3
ID : 4
Format :
Format/Info : Advanced Audio Codec
Format profile : LC
Codec ID : A_AAC-2
Duration : 1 h 38 min
Bit rate : 336 kb/s
Channel(s) : 6 channels
Channel positions : Front: L C R, Side: L R, LFE
Sampling rate : 48.0 kHz
Frame rate : 46.875 FPS (1024 SPF)
Compression mode : Lossy
Delay relative to video : 20 ms
Stream size : 236 MiB (5%)
Title : 5.1 @ 336 kbps - Original
Language : English
Default : No
Forced : No

Audio #4
ID : 5
Format :
Format/Info : Advanced Audio Codec
Format profile : HE- / LC
Format settings : Explicit
Codec ID : A_AAC-2
Duration : 1 h 38 min
Bit rate : 59.7 kb/s
Channel(s) : 2 channels
Channel positions : Front: L R
Sampling rate : 48.0 kHz / 24.0 kHz
Frame rate : 23.438 FPS (1024 SPF)
Compression mode : Lossy
Stream size : 42.0 MiB (1%)
Title : 2ch - Commentary w/Roger Deakins
Language : English
Default : No
Forced : No

Text #1
ID : 6
Format : UTF-8
Codec ID : S_TEXT/UTF8
Codec ID/Info : UTF-8 Plain Text
Duration : 1 h 34 min
Bit rate : 81 b/s
Count of elements : 1275
Stream size : 56.5 KiB (0%)
Title : Українські субтитри від Студії «Гуртом» для HURTOM.COM
Language : Ukrainian
Default : No
Forced : No

Text #2
ID : 7
Format : UTF-8
Codec ID : S_TEXT/UTF8
Codec ID/Info : UTF-8 Plain Text
Duration : 1 h 30 min
Bit rate : 60 b/s
Count of elements : 1403
Stream size : 40.3 KiB (0%)
Title : Full
Language : English
Default : No
Forced : No

Text #3
ID : 8
Format : UTF-8
Codec ID : S_TEXT/UTF8
Codec ID/Info : UTF-8 Plain Text
Duration : 1 h 31 min
Bit rate : 65 b/s
Count of elements : 1508
Stream size : 44.0 KiB (0%)
Title : SDH
Language : English
Default : No
Forced : No

Text #4
ID : 9
Format : UTF-8
Codec ID : S_TEXT/UTF8
Codec ID/Info : UTF-8 Plain Text
Duration : 1 h 34 min
Bit rate : 89 b/s
Count of elements : 1441
Stream size : 62.1 KiB (0%)
Title : Commentary
Language : English
Default : No
Forced : No

Menu
00:00:00.000 : en:Chapter 01
00:02:59.512 : en:Chapter 02
00:06:31.474 : en:Chapter 03
00:08:36.015 : en:Chapter 04
00:09:31.696 : en:Chapter 05
00:12:08.936 : en:Chapter 06
00:13:27.681 : en:Chapter 07
00:14:27.950 : en:Chapter 08
00:16:07.841 : en:Chapter 09
00:17:36.430 : en:Chapter 10
00:20:23.764 : en:Chapter 11
00:23:55.058 : en:Chapter 12
00:25:25.065 : en:Chapter 13
00:32:54.973 : en:Chapter 14
00:35:44.225 : en:Chapter 15
00:38:06.701 : en:Chapter 16
00:39:47.510 : en:Chapter 17
00:42:05.356 : en:Chapter 18
00:43:32.318 : en:Chapter 19
00:44:45.057 : en:Chapter 20
00:46:05.929 : en:Chapter 21
00:50:05.002 : en:Chapter 22
00:52:40.615 : en:Chapter 23
00:54:14.209 : en:Chapter 24
00:58:29.797 : en:Chapter 25
01:01:33.272 : en:Chapter 26
01:05:33.054 : en:Chapter 27
01:08:00.326 : en:Chapter 28
01:13:34.576 : en:Chapter 29
01:15:55.592 : en:Chapter 30
01:19:50.535 : en:Chapter 31
01:23:34.676 : en:Chapter 32
01:25:59.821 : en:Chapter 33
01:29:37.872 : en:Chapter 34
01:32:57.613 : en:Chapter 35
01:34:33.167 : en:Chapter 36
Скріншоти



Джерело:
Особиста оцінка: 9 - давно не бачив настільки якісне кіно


ЗАЛИШАЙТЕСЬ ЯКОМОГА ДОВШЕ НА РОЗДАЧІ!
ЗАВАНТАЖИВ САМ - ДАЙ ЗАВАНТАЖИТИ ІНШИМ


Авторський реліз (завантажувати можна без реєстрації)
 Трекер:    Зареєстрований   

Завантажити / скачати фільм українською



відео для новачків



 Зареєстрований:   2018-07-24 16:09
 Розмір:   5.01 GB 
 Оцінка фільму:   7.5/10 (Голосів: 4)
   
Інші релізи
   Фарґо (Фарго) / Fargo (1996) 2xUkr/Eng Arsenfpu  7 / 0   2.1 GB   2016-09-20 20:25 
   Фарґо / Fargo (1996) (Remastered) [MP4, 640x] apvAltisimo  0 / 0   629 MB   2015-08-09 12:31 
   Фарґо / Fargo (1996) (Remastered) Remux 1080р Ukr/Eng | Sub Ukr/Eng 11FrYkT  1 / 0   27.91 GB   2015-07-02 22:19 
   Фарґо / Fargo (1996) (Remastered) AVC Ukr/Eng | Sub Ukr/Eng Студія Hurtom  6 / 0   2.87 GB   2015-07-02 19:20 
   Фарґо / Fargo (1996) (Remastered) 1080p Ukr/Eng | Sub Ukr/Eng 11FrYkT  7 / 0   17.36 GB   2015-07-02 18:49 
   Фарґо / Fargo (1996) (Remastered) 720p Ukr/Eng | Sub Ukr/Eng 11FrYkT  9 / 0   5.81 GB   2015-07-02 18:40 
   Фарґо / Fargo (1996) (Remastered) 11FrYkT  6 / 0   1.45 GB   2015-07-02 18:39 
vash1 
Свій


З нами з: 16.03.16
Востаннє: 16.10.18
Повідомлень: 126

2018-09-26 16:13  
Є ось такий ріп:

Цитата:
Video
ID : 1
Format : HEVC
Format/Info : High Efficiency Video Coding
Format profile : [email protected]@Main
Codec ID : V_MPEGH/ISO/HEVC
Duration : 1 h 38 min
Bit rate : 2 984 kb/s
Width : 1 920 pixels
Height : 1 080 pixels
Display aspect ratio : 16:9
Frame rate mode : Constant
Frame rate : 23.976 (24000/1001) FPS
Color space : YUV
Chroma subsampling : 4:2:0
Bit depth : 8 bits
Bits/(Pixel*Frame) : 0.060
Stream size : 2.05 GiB (59%)
Default : Yes
Forced : No


Краща якість при вдвічі меншому бітрейті і 8-ми бітах. + не обрізаний по краях.
Як згадаю звідки качав - надішлю інфо в приват.

Ваш часовий пояс: GMT + 2 Години

Нова тема   Відповісти