Снігобур / Крізь сніг / Снігокол / Snowpiercer (2013) mini 1080p H.265 3xUkr/Eng | sub Ukr/Eng

Нові коментарі

Нова тема   Відповісти
Автор Повідомлення
ukr_anonymous 
Забанено
Забанено


З нами з: 17.04.18
Востаннє: 17.11.19
Повідомлень: 233

2018-07-24 15:41  
Снігобур / Крізь сніг / Снігокол / Snowpiercer (2013) mini 1080p H.265 3xUkr/Eng | sub Ukr/Eng

Снігобур / Крізь сніг / Снігокол / Snowpiercer (2013) mini 1080p H.265 3xUkr/Eng | sub Ukr/Eng


Жанр: трилер, фантастика
Країна: Південна Корея, Чехія, США, Франція



Кінокомпанія: Moho Film, Opus Pictures
Режисер: Пон Джунхо / Joon-ho Bong
Актори: Кріс Еванс, Джон Гарт, Тільда Свінтон, Джеймі Белл, Октавія Спенсер, Сон Кан Хо, Ед Гарріс

Сюжет:
Експеримент, який мав зупинити глобальне потепління, призвів до льодовикового періоду. Єдині, хто залишилися живими - це пасажири величезного поїзда, оснащеного вічним двигуном, що рухається по навколосвітній трасі. Встановлюється класова система поділу людей, з елітою, яка живе у передній частині потяга і бідними, які виживають у хвості. Жителі хвостової частини готуються до повстання.


Українською мовою озвучено студією Омікрон на замовлення HURTOM.COM


Тривалість: 02:05:58
Якість: mini
Відео:
кодек: H.265 (HEVC)
розмір кадру: 1920 х 1040
бітрейт: 4 751 кб/с
бітова глибина: 10 біт
Увага! Перед завантаженням переконайтесь, що ваш пристрій відтворення (та/або ПЗ) підтримує H.265 (HEVC)

Аудіо # 1:
мова: українська | Омікрон
переклад: багатоголосий закадровий
кодек: 5.1
бітрейт: 1 509 кб/с

Аудіо # 2:
мова: українська | UAVoice
переклад: двоголосий закадровий
кодек: 5.1
бітрейт: 640 кб/с

Аудіо # 3:
мова: українська | BOOGud
переклад: одноголосий закадровий
кодек: 5.1
бітрейт: 640 кб/с

Аудіо # 4:
мова: англійська
переклад: оригінал
кодек: 5.1
бітрейт: 640 кб/с

Субтитри # 1:
мова: українська
тип: програмні (м'які)
формат: *.srt

Субтитри # 2-3:
мова: англійська
тип: програмні (м'які)
формат: *.srt
Info
General
Unique ID : 251897263718763813045141870112986579501 (0xBD81A5F7AD969AD56ADED2897283422D)
Complete name : E:\video\Snowpiercer (2013) 1080p H.265 [3xUKR_ENG].
Format :
Format version : Version 4 / Version 2
File size : 7.20 GiB
Duration : 2 h 5 min
Overall bit rate : 8 180 kb/s
Movie name : Snowpiercer (2013)
Encoded date : UTC 2018-07-23 22:36:15
Writing application : v22.0.0 ('At The End Of The World') 64-bit
Writing library : libebml v1.3.5 + v1.4.8
Cover : Yes
Attachments : Cover.jpg

Video
ID : 1
Format : HEVC
Format/Info : High Efficiency Video Coding
Format profile : Main [email protected]@Main
Codec ID : V_MPEGH/ISO/HEVC
Duration : 2 h 5 min
Bit rate : 4 751 kb/s
Width : 1 920 pixels
Height : 1 040 pixels
Display aspect ratio : 1.85:1
Frame rate mode : Constant
Frame rate : 23.976 (24000/1001) FPS
Color space : YUV
Chroma subsampling : 4:2:0
Bit depth : 10 bits
Bits/(Pixel*Frame) : 0.099
Stream size : 4.18 GiB (58%)
Writing library : x265 2.8+19-bcdc610cf5f0:[Windows][GCC 7.3.0][64 bit] 10bit
Encoding settings : cpuid=1111039 / frame-threads=3 / numa-pools=8 / wpp / no-pmode / no-pme / no-psnr / no-ssim / log-level=2 / input-csp=1 / input-res=1920x1040 / interlace=0 / total-frames=181121 / level-idc=0 / high-tier=1 / uhd-bd=0 / ref=4 / no-allow-non-conformance / no-repeat-headers / annexb / no-aud / no-hrd / info / hash=0 / no-temporal-layers / open-gop / min-keyint=23 / keyint=250 / gop-lookahead=0 / bframes=4 / b-adapt=2 / b-pyramid / bframe-bias=0 / rc-lookahead=25 / lookahead-slices=4 / scenecut=40 / radl=0 / no-intra-refresh / ctu=64 / min-cu-size=8 / rect / no-amp / max-tu-size=32 / tu-inter-depth=1 / tu-intra-depth=1 / limit-tu=0 / rdoq-level=2 / dynamic-rd=0.00 / no-ssim-rd / signhide / no-tskip / nr-intra=0 / nr-inter=0 / no-constrained-intra / strong-intra-smoothing / max-merge=3 / limit-refs=3 / limit-modes / me=3 / subme=3 / merange=57 / temporal-mvp / weightp / no-weightb / no-analyze-src-pics / deblock=0:0 / sao / no-sao-non-deblock / rd=4 / no-early-skip / rskip / no-fast-intra / no-tskip-fast / no-cu-lossless / no-b-intra / no-splitrd-skip / rdpenalty=0 / psy-rd=2.00 / psy-rdoq=1.00 / no-rd-refine / no-lossless / cbqpoffs=0 / crqpoffs=0 / rc=abr / bitrate=4750 / qcomp=0.60 / qpstep=4 / stats-write=0 / stats-read=2 / cplxblur=20.0 / qblur=0.5 / ipratio=1.40 / pbratio=1.30 / aq-mode=3 / aq-strength=1.00 / cutree / zone-count=0 / no-strict-cbr / qg-size=32 / no-rc-grain / qpmax=69 / qpmin=0 / no-const-vbv / sar=0 / overscan=0 / videoformat=5 / range=0 / colorprim=2 / transfer=2 / colormatrix=2 / chromaloc=0 / display-window=0 / max-cll=0,0 / min-luma=0 / max-luma=1023 / log2-max-poc-lsb=8 / vui-timing-info / vui-hrd-info / slices=1 / no-opt-qp-pps / no-opt-ref-list-length-pps / multi-pass-opt-rps / scenecut-bias=0.05 / no-opt-cu-delta-qp / aq-motion / no-hdr / no-hdr-opt / no-dhdr10-opt / no-idr-recovery-sei / analysis-reuse-level=5 / scale-factor=0 / refine-intra=0 / refine-inter=0 / refine-mv=0 / no-limit-sao / ctu-info=0 / no-lowpass-dct / refine-mv-type=0 / copy-pic=1 / max-ausize-factor=1.0 / no-dynamic-refine / no-single-sei
Default : Yes
Forced : No

Audio #1
ID : 2
Format :
Format/Info : Digital Theater Systems
Codec ID : A_DTS
Duration : 2 h 5 min
Bit rate mode : Constant
Bit rate : 1 509 kb/s
Channel(s) : 6 channels
Channel positions : Front: L C R, Side: L R, LFE
Sampling rate : 48.0 kHz
Frame rate : 93.750 FPS (512 SPF)
Bit depth : 24 bits
Compression mode : Lossy
Delay relative to video : 6 ms
Stream size : 1.33 GiB (18%)
Title : MVO Omikron studio for Hurtom
Language : Ukrainian
Default : Yes
Forced : No

Audio #2
ID : 3
Format : AC-3
Format/Info : Audio Coding 3
Codec ID : A_AC3
Duration : 2 h 5 min
Bit rate mode : Constant
Bit rate : 640 kb/s
Channel(s) : 6 channels
Channel positions : Front: L C R, Side: L R, LFE
Sampling rate : 48.0 kHz
Frame rate : 31.250 FPS (1536 SPF)
Bit depth : 16 bits
Compression mode : Lossy
Stream size : 576 MiB (8%)
Title : Ukr_UAVoice_DVO_640
Language : Ukrainian
Service kind : Complete Main
Default : No
Forced : No

Audio #3
ID : 4
Format : AC-3
Format/Info : Audio Coding 3
Codec ID : A_AC3
Duration : 2 h 5 min
Bit rate mode : Constant
Bit rate : 640 kb/s
Channel(s) : 6 channels
Channel positions : Front: L C R, Side: L R, LFE
Sampling rate : 48.0 kHz
Frame rate : 31.250 FPS (1536 SPF)
Bit depth : 16 bits
Compression mode : Lossy
Stream size : 576 MiB (8%)
Title : UKR_VO_640
Language : Ukrainian
Service kind : Complete Main
Default : No
Forced : No

Audio #4
ID : 5
Format : AC-3
Format/Info : Audio Coding 3
Codec ID : A_AC3
Duration : 2 h 5 min
Bit rate mode : Constant
Bit rate : 640 kb/s
Channel(s) : 6 channels
Channel positions : Front: L C R, Side: L R, LFE
Sampling rate : 48.0 kHz
Frame rate : 31.250 FPS (1536 SPF)
Bit depth : 16 bits
Compression mode : Lossy
Delay relative to video : 16 ms
Stream size : 577 MiB (8%)
Language : English
Service kind : Complete Main
Default : No
Forced : No

Text #1
ID : 6
Format : UTF-8
Codec ID : S_TEXT/UTF8
Codec ID/Info : UTF-8 Plain Text
Duration : 1 h 59 min
Bit rate : 65 b/s
Count of elements : 1163
Stream size : 56.9 KiB (0%)
Language : Ukrainian
Default : No
Forced : No

Text #2
ID : 7
Format : UTF-8
Codec ID : S_TEXT/UTF8
Codec ID/Info : UTF-8 Plain Text
Duration : 1 h 26 min
Bit rate : 3 b/s
Count of elements : 108
Stream size : 2.32 KiB (0%)
Title : Forced
Language : English
Default : No
Forced : No

Text #3
ID : 8
Format : UTF-8
Codec ID : S_TEXT/UTF8
Codec ID/Info : UTF-8 Plain Text
Duration : 1 h 56 min
Bit rate : 37 b/s
Count of elements : 1141
Stream size : 31.9 KiB (0%)
Language : English
Default : No
Forced : No

Menu
00:00:00.000 : en:Chapter 01
00:03:40.637 : en:Chapter 02
00:08:46.859 : en:Chapter 03
00:16:09.718 : en:Chapter 04
00:21:25.534 : en:Chapter 05
00:29:13.877 : en:Chapter 06
00:34:51.380 : en:Chapter 07
00:41:14.054 : en:Chapter 08
00:47:52.244 : en:Chapter 09
00:56:42.357 : en:Chapter 10
01:02:44.427 : en:Chapter 11
01:15:16.220 : en:Chapter 12
01:23:46.604 : en:Chapter 13
01:33:06.789 : en:Chapter 14
01:36:35.706 : en:Chapter 15
01:44:36.144 : en:Chapter 16
01:50:34.085 : en:Chapter 17
01:56:58.720 : en:Chapter 18
Скріншоти



Джерело:
Особиста оцінка: 10 - без зайвих вагань рекомендую всім!


ЗАЛИШАЙТЕСЬ ЯКОМОГА ДОВШЕ НА РОЗДАЧІ!
ЗАВАНТАЖИВ САМ - ДАЙ ЗАВАНТАЖИТИ ІНШИМ


Авторський реліз (завантажувати можна без реєстрації)
 Трекер:    Зареєстрований   

Завантажити / скачати фільм українською



відео для новачків



 Зареєстрований:   2018-07-24 15:41
 Розмір:   7.2 GB 
 Оцінка фільму:   8.5/10 (Голосів: 15)
   
bogdan8249 
Відео Гуртом - фільмокрай
Відео Гуртом - фільмокрай


З нами з: 09.08.08
Востаннє: 13.08.20
Повідомлень: 1233

2018-07-25 02:40  
Оце так. Фільм із трьома доріжками авторських перекладів.
vash1 
VIP


З нами з: 16.03.16
Востаннє: 09.08.20
Повідомлень: 262

2018-08-28 14:48  
Несподівана кількість доріжок для південно-корейського фільму! Режисер тримає планку після 'Мами' та 'Спогадів про вбивство'

Окреме дякую за від Омікрона та українські субтитри.

Bіталій0090 
Новенький


З нами з: 30.05.17
Востаннє: 30.07.20
Повідомлень: 1

2020-03-01 13:24  
Файл бракований, пропадає звук, відео-потік відстає часто від звуку.
Ваш часовий пояс: GMT + 2 Години

Нова тема   Відповісти