Складки часу / A Wrinkle in Time (2018) 1080p H.265 Ukr/Eng | Sub Eng

Нові коментарі

Нова тема   Відповісти
Автор Повідомлення
ukr_anonymous 
Попереджень: 1
Попереджень: 1 


З нами з: 17.04.18
Востаннє: 08.09.19
Повідомлень: 234

2018-07-24 15:32  
Складки часу / A Wrinkle in Time (2018) 1080p H.265 Ukr/Eng | Sub Eng

Складки часу / A Wrinkle in Time (2018) 1080p H.265 Ukr/Eng | Sub Eng


Жанр: пригодницький, сімейний, фантастика, фентезі
Країна: США



Кінокомпанія: Walt Disney Pictures
Режисер: Ава ДюВерней / Ava DuVernay
Актори: Різ Візерспун / Reese Witherspoon, Кріс Пайн / Chris Pine, Опра Вінфрі / Oprah Winfrey, Сторм Рейд / Storm Reid, Ґуґу Мбата-Ров / Gugu Mbatha-Raw, Мінді Калінґ / Mindy Kaling, Леві Міллер / Levi Miller, Дерік МакКейб / Deric McCabe, Зак Ґаліфіанакіс / Zach Galifianakis, Ровен Бланчард / Rowan Blanchard, Девід Ойелово / David Oyelowo, Майкл Пенья / Michael Peña та інші

Сюжет:
Дісней запрошує у фантастичні світи! Під час проведення експерименту батько Мег, відомий вчений, безслідно зникає. На його пошуки дівчина разом зі своїм молодшим братом і однокласником вирушають у ризиковану подорож у просторі й часі. Їй належить виконати своє призначення і зупинити темряву, що перемагає світло.


Тривалість: 01:49:37
Якість:
Відео:
кодек: H.265 (HEVC)
розмір кадру: 1920 х 804
бітрейт: 4 583 кб/с
бітова глибина: 10 біт
Увага! Перед завантаженням переконайтесь, що ваш пристрій відтворення (та/або ПЗ) підтримує H.265 (HEVC)

Аудіо # 1:
мова: українська
переклад: професійний дубльований
кодек: 2.0
бітрейт: 192 кб/с

Аудіо # 2:
мова: англійська
переклад: оригінал
кодек: 5.1
бітрейт: 640 кб/с

Субтитри #1-2:
мова: англійська (повні, SDH)
тип: програмні (м'які)
формат: *.srt
Info
General
Unique ID : 109615661532273739122746784135477109600 (0x5277355FB9578B304D1694AE6D8AA360)
Complete name : E:\video\A Wrinkle In Time (2018) 1080p H.265 [UKR_ENG].
Format :
Format version : Version 4 / Version 2
File size : 4.15 GiB
Duration : 1 h 49 min
Overall bit rate : 5 418 kb/s
Movie name : A Wrinkle in Time (2018)
Encoded date : UTC 2018-07-23 21:05:51
Writing application : v22.0.0 ('At The End Of The World') 64-bit
Writing library : libebml v1.3.5 + v1.4.8
Cover : Yes
Attachments : Cover.jpg / cover.jpg

Video
ID : 1
Format : HEVC
Format/Info : High Efficiency Video Coding
Format profile : Main [email protected]@Main
Codec ID : V_MPEGH/ISO/HEVC
Duration : 1 h 49 min
Bit rate : 4 583 kb/s
Width : 1 920 pixels
Height : 804 pixels
Display aspect ratio : 2.40:1
Frame rate mode : Constant
Frame rate : 23.976 (24000/1001) FPS
Original frame rate : 23.976 (23976/1000) FPS
Color space : YUV
Chroma subsampling : 4:2:0
Bit depth : 10 bits
Bits/(Pixel*Frame) : 0.124
Stream size : 3.51 GiB (85%)
Writing library : x265 2.7+15-b9f5b5d7bf95:[Windows][MSVC 1800][64 bit] 10bit
Encoding settings : cpuid=1173503 / frame-threads=3 / numa-pools=8 / wpp / no-pmode / no-pme / no-psnr / no-ssim / log-level=2 / input-csp=1 / input-res=1920x804 / interlace=0 / total-frames=0 / level-idc=0 / high-tier=1 / uhd-bd=0 / ref=6 / no-allow-non-conformance / repeat-headers / annexb / no-aud / no-hrd / info / hash=0 / no-temporal-layers / no-open-gop / min-keyint=23 / keyint=250 / gop-lookahead=0 / bframes=8 / b-adapt=2 / b-pyramid / bframe-bias=0 / rc-lookahead=24 / lookahead-slices=5 / scenecut=40 / radl=0 / no-intra-refresh / ctu=64 / min-cu-size=8 / no-rect / no-amp / max-tu-size=32 / tu-inter-depth=1 / tu-intra-depth=1 / limit-tu=0 / rdoq-level=0 / dynamic-rd=0.00 / no-ssim-rd / signhide / no-tskip / nr-intra=0 / nr-inter=0 / no-constrained-intra / no-strong-intra-smoothing / max-merge=2 / limit-refs=3 / no-limit-modes / me=2 / subme=6 / merange=48 / temporal-mvp / weightp / weightb / no-analyze-src-pics / deblock=0:0 / sao / no-sao-non-deblock / rd=4 / no-early-skip / rskip / no-fast-intra / no-tskip-fast / no-cu-lossless / no-b-intra / no-splitrd-skip / rdpenalty=0 / psy-rd=2.00 / psy-rdoq=0.00 / no-rd-refine / no-lossless / cbqpoffs=0 / crqpoffs=0 / rc=crf / crf=17.0 / qcomp=0.60 / qpstep=4 / stats-write=0 / stats-read=0 / ipratio=1.40 / pbratio=1.30 / aq-mode=3 / aq-strength=1.00 / cutree / zone-count=0 / no-strict-cbr / qg-size=32 / no-rc-grain / qpmax=69 / qpmin=0 / no-const-vbv / sar=0 / overscan=0 / videoformat=5 / range=0 / colorprim=2 / transfer=2 / colormatrix=2 / chromaloc=0 / display-window=0 / max-cll=0,0 / min-luma=0 / max-luma=1023 / log2-max-poc-lsb=8 / vui-timing-info / vui-hrd-info / slices=1 / no-opt-qp-pps / no-opt-ref-list-length-pps / no-multi-pass-opt-rps / scenecut-bias=0.05 / no-opt-cu-delta-qp / aq-motion / no-hdr / no-hdr-opt / no-dhdr10-opt / no-idr-recovery-sei / analysis-reuse-level=5 / scale-factor=0 / refine-intra=0 / refine-inter=0 / refine-mv=0 / no-limit-sao / ctu-info=0 / no-lowpass-dct / refine-mv-type=0 / copy-pic=1 / max-ausize-factor=1.0 / no-dynamic-refine
Language : English
Default : Yes
Forced : No

Audio #1
ID : 2
Format : AC-3
Format/Info : Audio Coding 3
Codec ID : A_AC3
Duration : 1 h 49 min
Bit rate mode : Constant
Bit rate : 192 kb/s
Channel(s) : 2 channels
Channel positions : Front: L R
Sampling rate : 48.0 kHz
Frame rate : 31.250 FPS (1536 SPF)
Bit depth : 16 bits
Compression mode : Lossy
Stream size : 151 MiB (4%)
Title : Dub [LeDoyen, іТunеs] 2.0 [stereo] 192 Kbps
Language : Ukrainian
Service kind : Complete Main
Default : Yes
Forced : Yes

Audio #2
ID : 3
Format : AC-3
Format/Info : Audio Coding 3
Codec ID : A_AC3
Duration : 1 h 49 min
Bit rate mode : Constant
Bit rate : 640 kb/s
Channel(s) : 6 channels
Channel positions : Front: L C R, Side: L R, LFE
Sampling rate : 48.0 kHz
Frame rate : 31.250 FPS (1536 SPF)
Bit depth : 16 bits
Compression mode : Lossy
Stream size : 502 MiB (12%)
Title : Original, 5.1 640 Kbps
Language : English
Service kind : Complete Main
Default : No
Forced : No

Text #1
ID : 4
Format : UTF-8
Codec ID : S_TEXT/UTF8
Codec ID/Info : UTF-8 Plain Text
Duration : 1 h 39 min
Bit rate : 48 b/s
Count of elements : 1410
Stream size : 35.2 KiB (0%)
Title : Eng full
Language : English
Default : No
Forced : No

Text #2
ID : 5
Format : UTF-8
Codec ID : S_TEXT/UTF8
Codec ID/Info : UTF-8 Plain Text
Duration : 1 h 46 min
Bit rate : 52 b/s
Count of elements : 1597
Stream size : 41.4 KiB (0%)
Title : Eng SDH
Language : English
Default : No
Forced : No

Menu
00:00:00.000 : en:00:00:00.000
00:09:39.871 : en:00:09:39.871
00:13:46.868 : en:00:13:46.868
00:18:04.083 : en:00:18:04.083
00:21:28.287 : en:00:21:28.287
00:28:32.502 : en:00:28:32.502
00:39:14.811 : en:00:39:14.811
00:48:41.252 : en:00:48:41.252
00:54:03.198 : en:00:54:03.198
01:03:04.531 : en:01:03:04.531
01:09:48.267 : en:01:09:48.267
01:19:03.197 : en:01:19:03.197
01:29:05.549 : en:01:29:05.549
01:40:03.497 : en:01:40:03.497
Скріншоти



Підтримати купівлю інших фільмів можна тут.


Джерело:
Особиста оцінка: 0 - не дивився


ЗАЛИШАЙТЕСЬ ЯКОМОГА ДОВШЕ НА РОЗДАЧІ!
ЗАВАНТАЖИВ САМ - ДАЙ ЗАВАНТАЖИТИ ІНШИМ


 Трекер:    Зареєстрований   

Завантажити / скачати фільм українською



відео для новачків



 Зареєстрований:   2018-07-24 15:32
 Розмір:   4.15 GB 
 Оцінка фільму:   6.5/10 (Голосів: 11)
   
Інші релізи
Sam1993 
Новенький


З нами з: 26.01.14
Востаннє: 28.05.19
Повідомлень: 2

2018-07-25 16:03  
Рейтинг фильма конечно печаль, печаль, печаль
Lil`Antoni 
VIP


З нами з: 25.02.12
Востаннє: 06.09.19
Повідомлень: 738

2018-08-01 14:45  
Ех, я так очікував що дане відео піде на телевізорі, навіть попробував скачати з файл з ютуба і все пішло і я був радий.
А от фільм скачав і не підтримує Sad (1) прийдеться качати звичайну 720 Sad (1)

Ваш часовий пояс: GMT + 2 Години

Нова тема   Відповісти