Першому гравцю приготуватися / Ready Player One (2018) 1080p 3D [Half OverUnder] Ukr/Eng | Sub Eng

Нові коментарі

Нова тема   Відповісти
Автор Повідомлення
QWERTYJJJJJJ 
Поважний учасник


З нами з: 06.11.12
Востаннє: 09.12.18
Повідомлень: 220

2018-07-24 14:27  
Першому гравцю приготуватися / Ready Player One (2018) 1080p 3D [Half OverUnder] Ukr/Eng | Sub Eng

Першому гравцю приготуватися / Ready Player One (2018) 1080p 3D [Half OverUnder] Ukr/Eng | Sub Eng


Жанр: пригодницький, фантастика, екшн, бойовик
Країна: США



Кінокомпанія: Warner Bros. Pictures, DreamWorks SKG, Amblin Entertainment, Village Roadshow Pictures, De Line Pictures
Режисер: Стівен Спілберг
Актори: Тай Шерідан, Олівія Кук, Бен Мендельсон, Саймон Пегг, Ті Джей Міллер, Ліна Вейт, Марк Райленс, Він Морісакі, Філіп Зао, Ханна Джон-Кеймен та інші

"Звільнись"
Сюжет:
На дворі 2045 рік. Світ загруз на межі хаосу, адже велика частина населення просто виживає без достатніх коштів для існування. Щоб піти від непривабливої реальності, багато хто проводить час у грандіозному віртуальному ігровому всесвіті - ОАЗІ. Його створив ексцентричний і геніальний мільярдер Джеймс Холлідей. Після своєї смерті він заповів все своє майно (а це півтрильйона доларів і влада над грою) єдиному гравцеві – тому, хто першим добереться до ретельно захованої "пасхалки". Весь світ тепер готовий поборотися за ці неймовірні багатства. До змагання приєднується і звичайний хлопець-сирота Вейд Воттс (Тай Шерідан) і потрапляє у небезпечне полювання на скарб у фантастичному всесвіті таємниць, відкриттів та ризику...


Тривалість: 02:19:58
Якість: 1080p 3D [Half OverUnder] by Ash61
Формат:
Відео:
кодек:
розмір кадру: 1920x1080
бітрейт: 13 мб/с
формат 3D: Half OverUnder / Вертикальна анаморфна стереопара
порядок ракурсів: лівий ракурс перший

Аудіо # 1:
мова: українська
переклад: професійний дубльований | студія Postmodern | iTunes
кодек: 2.0
бітрейт: 192 кб/с

Аудіо # 2:
мова: англійська
переклад: оригінал
кодек: 5.1
бітрейт: 640 кб/с

Субтитри #1 (Forced):
мова: українська
тип: програмні (м'які)
формат: *.srt

Субтитри #2 (SDH, повні):
мова: англійська
тип: програмні (м'які)
формат: *.srt
Info
General
Unique ID : 309212474661791720930368639486313286797 (0xE8A0280AAD626CB526EB56A31A2ACC8D)
Complete name : Pershomu.gravciu.prygotuvatysia.2018.Di.3D.FullHD.Ukr.Eng.
Format :
Format version : Version 4 / Version 2
File size : 13.5 GiB
Duration : 2 h 19 min
Overall bit rate : 13.8 Mb/s
Movie name : Первому игроку приготовиться / Ready Player One (2018) in 3D
Encoded date : UTC 2018-07-24 10:51:44
Writing application : v25.0.0 ('Prog Noir') 64-bit
Writing library : libebml v1.3.6 + v1.4.9

Video
ID : 1
Format : AVC
Format/Info : Advanced Video Codec
Format profile : [email protected]
Format settings : CABAC / 4 Ref Frames
Format settings, CABAC : Yes
Format settings, ReFrames : 4 frames
Codec ID : V_MPEG4/ISO/AVC
Duration : 2 h 19 min
Bit rate : 13.0 Mb/s
Width : 1 920 pixels
Height : 1 080 pixels
Display aspect ratio : 16:9
Frame rate mode : Constant
Frame rate : 23.976 (24000/1001) FPS
Color space : YUV
Chroma subsampling : 4:2:0
Bit depth : 8 bits
Scan type : Progressive
Bits/(Pixel*Frame) : 0.261
Stream size : 12.7 GiB (94%)
Title : by Ash61
Writing library : core 146 r2538 121396c
Encoding settings : cabac=1 / ref=4 / deblock=1:-3:-3 / analyse=0x3:0x113 / me=umh / subme=10 / psy=1 / psy_rd=1.00:0.00 / mixed_ref=1 / me_range=32 / chroma_me=1 / trellis=2 / 8x8dct=1 / cqm=0 / deadzone=21,11 / fast_pskip=0 / chroma_qp_offset=-2 / threads=12 / lookahead_threads=2 / sliced_threads=0 / nr=0 / decimate=0 / interlaced=0 / bluray_compat=0 / constrained_intra=0 / bframes=9 / b_pyramid=2 / b_adapt=2 / b_bias=0 / direct=3 / weightb=1 / open_gop=0 / weightp=2 / keyint=250 / keyint_min=23 / scenecut=40 / intra_refresh=0 / rc_lookahead=60 / rc=2pass / mbtree=0 / bitrate=13000 / ratetol=1.0 / qcomp=0.70 / qpmin=0 / qpmax=69 / qpstep=4 / cplxblur=20.0 / qblur=0.5 / vbv_maxrate=40000 / vbv_bufsize=30000 / nal_hrd=none / filler=0 / frame-packing=4 / ip_ratio=1.40 / pb_ratio=1.30 / aq=1:0.70
Language : English
Default : Yes
Forced : No

Audio #1
ID : 2
Format : AC-3
Format/Info : Audio Coding 3
Codec ID : A_AC3
Duration : 2 h 19 min
Bit rate mode : Constant
Bit rate : 192 kb/s
Channel(s) : 2 channels
Channel positions : Front: L R
Sampling rate : 48.0 kHz
Frame rate : 31.250 FPS (1536 SPF)
Bit depth : 16 bits
Compression mode : Lossy
Stream size : 192 MiB (1%)
Title : Дубляж - iTunes
Language : Ukrainian
Service kind : Complete Main
Default : No
Forced : No

Audio #2
ID : 3
Format : AC-3
Format/Info : Audio Coding 3
Codec ID : A_AC3
Duration : 2 h 19 min
Bit rate mode : Constant
Bit rate : 640 kb/s
Channel(s) : 6 channels
Channel positions : Front: L C R, Side: L R, LFE
Sampling rate : 48.0 kHz
Frame rate : 31.250 FPS (1536 SPF)
Bit depth : 16 bits
Compression mode : Lossy
Stream size : 641 MiB (5%)
Title : Original - BD 3D Eur
Language : English
Service kind : Complete Main
Default : No
Forced : No

Text #1
ID : 4
Format : UTF-8
Codec ID : S_TEXT/UTF8
Codec ID/Info : UTF-8 Plain Text
Duration : 2 h 18 min
Bit rate : 2 b/s
Count of elements : 65
Stream size : 2.95 KiB (0%)
Title : Форсированные [Hurtom]
Language : Ukrainian
Default : No
Forced : No

Text #2
ID : 5
Format : UTF-8
Codec ID : S_TEXT/UTF8
Codec ID/Info : UTF-8 Plain Text
Duration : 2 h 8 min
Bit rate : 62 b/s
Count of elements : 1856
Stream size : 59.0 KiB (0%)
Title : SDH
Language : English
Default : No
Forced : No

Menu
00:00:00.000 : :1
00:10:08.233 : :2
00:20:18.259 : :3
00:30:37.627 : :4
00:40:38.269 : :5
00:50:08.964 : :6
01:03:01.778 : :7
01:11:55.269 : :8
01:20:14.727 : :9
01:30:58.328 : :10
01:43:26.742 : :11
01:53:02.150 : :12
02:04:20.161 : :13
02:09:17.249 : :14
Скріншоти
Автор: &
Особиста оцінка: 0 - Не переглядав


 Трекер:    Зареєстрований   

Завантажити / скачати фільм українською



відео для новачків



 Зареєстрований:   2018-07-24 14:27
 Розмір:   13.53 GB 
 Оцінка фільму:   8.8/10 (Голосів: 13)
   
slavas 
Новенький


З нами з: 05.04.11
Востаннє: 14.12.18
Повідомлень: 14

2018-07-30 20:03  
Фільм для підлітків
antik_2008 
Релізер і модератор відео


З нами з: 20.10.08
Востаннє: 14.12.18
Повідомлень: 1694

2018-07-31 15:00  
Гарний фільм
hetzendorf 
Попереджень: 1
Попереджень: 1 


З нами з: 23.07.15
Востаннє: 16.12.18
Повідомлень: 1577

2018-08-12 20:43  
Фільм здебільшого видовищний, але не нудний — більше 2 годин, і було не відірватися — ще й з сякою-такою ідеєю. Хоча й навколишній світ малопродуманий.
Наприклад, наприкінці раптово з'являється поліція й заарештовує головного лиходія, тоді як раніше можливо було безкарно підривати халабуди з купою мирняка.
8/10

Ваш часовий пояс: GMT + 2 Години

Нова тема   Відповісти