Божевільна / Unsane (2018) mini 1080p H.265 Ukr/Eng | Sub Ukr/Eng

Нові коментарі

Нова тема   Відповісти
Автор Повідомлення
ukr_anonymous 
Забанено
Забанено


З нами з: 17.04.18
Востаннє: 17.11.19
Повідомлень: 233

2018-07-24 15:23  
Божевільна / Unsane (2018) mini 1080p H.265 Ukr/Eng | Sub Ukr/Eng

Божевільна / Unsane (2018) mini 1080p H.265 Ukr/Eng | Sub Ukr/Eng


Жанр: жахи, трилер
Країна: США



Кінокомпанія: Extension 765, New Regency Pictures, Regency Enterprises
Режисер: Стівен Содерберг
Актори: Клер Фой, Джошуа Леонард, Джей Феро, Джуно Темпл, Емі Ірвінг, Аймі Маллінз, Сара Стайлс, Зак Черрі, Марк Кадиш

Сюжет:
Молоду жінку без її згоди закривають в психіатричній лікарні, де вона стикається зі своїм найбільшим страхом. Але чи є те, що відбувається, реальністю, чи це все її галюцинація?


Тривалість: 01:38:11
Якість:
Відео:
кодек: H.265 (HEVC)
розмір кадру: 1688 х 1080
бітрейт: 4 463 кб/с
бітова глибина: 10 біт
Увага! Перед завантаженням переконайтесь, що ваш пристрій відтворення (та/або ПЗ) підтримує H.265 (HEVC)

Аудіо # 1:
мова: українська
переклад: професійний дубльований
кодек: 2.0
бітрейт: 192 кб/с

Аудіо # 2:
мова: англійська
переклад: оригінал
кодек: 5.1
бітрейт: 448 кб/с

Субтитри # 1-2:
мова: українська (Forced, Full)
тип: програмні (м'які)
формат: *.srt

Субтитри # 3-4:
мова: англійська (Full, SDH)
тип: програмні (м'які)
формат: *.srt
Info
General
Unique ID : 294664165082049190793817021554755225488 (0xDDAE41000B8BEAFDFF34036C9989C790)
Complete name : E:\video\Unsane (2018) 1080p H.265 [UKR_ENG].
Format :
Format version : Version 4 / Version 2
File size : 3.50 GiB
Duration : 1 h 38 min
Overall bit rate : 5 105 kb/s
Movie name : Unsane (2018)
Encoded date : UTC 2018-07-23 20:57:32
Writing application : v22.0.0 ('At The End Of The World') 64-bit
Writing library : libebml v1.3.5 + v1.4.8
Cover : Yes
Attachments : Cover.jpg / cover

Video
ID : 1
Format : HEVC
Format/Info : High Efficiency Video Coding
Format profile : Main [email protected]@Main
Codec ID : V_MPEGH/ISO/HEVC
Duration : 1 h 38 min
Bit rate : 4 463 kb/s
Width : 1 688 pixels
Height : 1 080 pixels
Display aspect ratio : 16:10
Frame rate mode : Constant
Frame rate : 23.976 (24000/1001) FPS
Color space : YUV
Chroma subsampling : 4:2:0
Bit depth : 10 bits
Bits/(Pixel*Frame) : 0.102
Stream size : 3.06 GiB (87%)
Writing library : x265 2.8+1-478bfe2b7673:[Windows][GCC 7.3.0][64 bit] 10bit
Encoding settings : cpuid=1111039 / frame-threads=3 / numa-pools=8 / wpp / no-pmode / no-pme / no-psnr / no-ssim / log-level=2 / input-csp=1 / input-res=1688x1080 / interlace=0 / total-frames=141255 / level-idc=0 / high-tier=1 / uhd-bd=0 / ref=4 / no-allow-non-conformance / no-repeat-headers / annexb / no-aud / no-hrd / info / hash=0 / no-temporal-layers / open-gop / min-keyint=23 / keyint=250 / gop-lookahead=0 / bframes=4 / b-adapt=2 / b-pyramid / bframe-bias=0 / rc-lookahead=25 / lookahead-slices=4 / scenecut=40 / radl=0 / no-intra-refresh / ctu=64 / min-cu-size=8 / rect / no-amp / max-tu-size=32 / tu-inter-depth=1 / tu-intra-depth=1 / limit-tu=0 / rdoq-level=2 / dynamic-rd=0.00 / no-ssim-rd / signhide / no-tskip / nr-intra=0 / nr-inter=0 / no-constrained-intra / strong-intra-smoothing / max-merge=3 / limit-refs=3 / limit-modes / me=3 / subme=3 / merange=57 / temporal-mvp / weightp / no-weightb / no-analyze-src-pics / deblock=0:0 / sao / no-sao-non-deblock / rd=4 / no-early-skip / rskip / no-fast-intra / no-tskip-fast / no-cu-lossless / no-b-intra / no-splitrd-skip / rdpenalty=0 / psy-rd=2.00 / psy-rdoq=1.00 / no-rd-refine / no-lossless / cbqpoffs=0 / crqpoffs=0 / rc=abr / bitrate=4462 / qcomp=0.60 / qpstep=4 / stats-write=0 / stats-read=2 / cplxblur=20.0 / qblur=0.5 / ipratio=1.40 / pbratio=1.30 / aq-mode=3 / aq-strength=1.00 / cutree / zone-count=0 / no-strict-cbr / qg-size=32 / no-rc-grain / qpmax=69 / qpmin=0 / no-const-vbv / sar=0 / overscan=0 / videoformat=5 / range=0 / colorprim=2 / transfer=2 / colormatrix=2 / chromaloc=0 / display-window=0 / max-cll=0,0 / min-luma=0 / max-luma=1023 / log2-max-poc-lsb=8 / vui-timing-info / vui-hrd-info / slices=1 / no-opt-qp-pps / no-opt-ref-list-length-pps / multi-pass-opt-rps / scenecut-bias=0.05 / no-opt-cu-delta-qp / aq-motion / no-hdr / no-hdr-opt / no-dhdr10-opt / no-idr-recovery-sei / analysis-reuse-level=5 / scale-factor=0 / refine-intra=0 / refine-inter=0 / refine-mv=0 / no-limit-sao / ctu-info=0 / no-lowpass-dct / refine-mv-type=0 / copy-pic=1 / max-ausize-factor=1.0 / no-dynamic-refine / no-single-sei
Default : Yes
Forced : No

Audio #1
ID : 2
Format : AC-3
Format/Info : Audio Coding 3
Codec ID : A_AC3
Duration : 1 h 38 min
Bit rate mode : Constant
Bit rate : 192 kb/s
Channel(s) : 2 channels
Channel positions : Front: L R
Sampling rate : 48.0 kHz
Frame rate : 31.250 FPS (1536 SPF)
Bit depth : 16 bits
Compression mode : Lossy
Stream size : 135 MiB (4%)
Title : 2.0 @ 192 kbps
Language : Ukrainian
Service kind : Complete Main
Default : Yes
Forced : Yes

Audio #2
ID : 3
Format : AC-3
Format/Info : Audio Coding 3
Codec ID : A_AC3
Duration : 1 h 38 min
Bit rate mode : Constant
Bit rate : 448 kb/s
Channel(s) : 6 channels
Channel positions : Front: L C R, Side: L R, LFE
Sampling rate : 48.0 kHz
Frame rate : 31.250 FPS (1536 SPF)
Bit depth : 16 bits
Compression mode : Lossy
Stream size : 315 MiB (9%)
Title : 5.1 @ 448 kbps
Language : English
Service kind : Complete Main
Default : No
Forced : No

Text #1
ID : 4
Format : UTF-8
Codec ID : S_TEXT/UTF8
Codec ID/Info : UTF-8 Plain Text
Duration : 1 h 33 min
Bit rate : 0 b/s
Count of elements : 4
Stream size : 188 Bytes (0%)
Title : Forced
Language : Ukrainian
Default : Yes
Forced : Yes

Text #2
ID : 5
Format : UTF-8
Codec ID : S_TEXT/UTF8
Codec ID/Info : UTF-8 Plain Text
Duration : 1 h 36 min
Bit rate : 89 b/s
Count of elements : 1221
Stream size : 63.3 KiB (0%)
Title : Full
Language : Ukrainian
Default : No
Forced : No

Text #3
ID : 6
Format : UTF-8
Codec ID : S_TEXT/UTF8
Codec ID/Info : UTF-8 Plain Text
Duration : 1 h 35 min
Bit rate : 62 b/s
Count of elements : 1291
Stream size : 43.8 KiB (0%)
Title : Full
Language : English
Default : No
Forced : No

Text #4
ID : 7
Format : UTF-8
Codec ID : S_TEXT/UTF8
Codec ID/Info : UTF-8 Plain Text
Duration : 1 h 36 min
Bit rate : 65 b/s
Count of elements : 1381
Stream size : 46.2 KiB (0%)
Title : SDH
Language : English
Default : No
Forced : No

Menu
00:00:00.000 : en:Chapter 01
00:05:40.256 : en:Chapter 02
00:10:21.912 : en:Chapter 03
00:14:24.697 : en:Chapter 04
00:19:26.331 : en:Chapter 05
00:24:46.234 : en:Chapter 06
00:29:10.165 : en:Chapter 07
00:36:35.401 : en:Chapter 08
00:40:25.089 : en:Chapter 09
00:45:23.595 : en:Chapter 10
00:50:14.803 : en:Chapter 11
00:56:12.285 : en:Chapter 12
00:59:06.834 : en:Chapter 13
01:04:44.463 : en:Chapter 14
01:07:30.046 : en:Chapter 15
01:15:37.449 : en:Chapter 16
01:23:25.333 : en:Chapter 17
01:26:39.652 : en:Chapter 18
01:30:23.167 : en:Chapter 19
01:35:08.411 : en:Chapter 20
Скріншоти



Джерело:
Особиста оцінка: 0 - не дивився


ЗАЛИШАЙТЕСЬ ЯКОМОГА ДОВШЕ НА РОЗДАЧІ!
ЗАВАНТАЖИВ САМ - ДАЙ ЗАВАНТАЖИТИ ІНШИМ


 Трекер:    Зареєстрований   

Завантажити / скачати фільм українською



відео для новачків



 Зареєстрований:   2018-07-24 15:23
 Розмір:   3.5 GB 
 Оцінка фільму:   5.7/10 (Голосів: 3)
   
Інші релізи
   Божевільна / Unsane (2018) 1080p H.265 Ukr/Eng | Sub Ukr/Eng -Star-Lord-  2 / 0   5.26 GB   2019-02-04 14:33 
   Божевільна / Unsane (2018) leicheman  5 / 0   1.45 GB   2018-08-02 21:57 
   Божевільна / Unsane (2018) Remux 1080p Ukr/Eng | Sub Ukr/Eng staf777  1 / 0   24.16 GB   2018-07-31 19:10 
   Божевільна / Unsane (2018) AVC Ukr/Eng | Sub Ukr/Eng 11FrYkT  2 / 0   2.05 GB   2018-07-30 22:33 
   Божевільна / Unsane (2018) 720p Ukr/Eng | Sub Ukr/Eng 11FrYkT  1 / 0   3.91 GB   2018-07-30 17:04 
   Божевільна / Unsane (2018) 1080p Ukr/Eng | Sub Ukr/Eng staf777  2 / 0   11.48 GB   2018-07-22 17:40 
Ваш часовий пояс: GMT + 2 Години

Нова тема   Відповісти