Непрохані гості (Розширена версія) / Wedding Crashers (Uncorked Edition) (2005) mini 1080p H.265 Ukr/Eng | Sub Ukr/Eng

Нові коментарі

Нова тема   Відповісти
Автор Повідомлення
ukr_anonymous 
Забанено
Забанено


З нами з: 17.04.18
Востаннє: 17.11.19
Повідомлень: 233

2018-07-24 15:15  
Непрохані гості (Розширена версія) / Wedding Crashers (Uncorked Edition) (2005) mini 1080p H.265 Ukr/Eng | Sub Ukr/Eng

Непрохані гості (Розширена версія) / Wedding Crashers (Uncorked Edition) (2005) mini 1080p H.265 Ukr/Eng | Sub Ukr/Eng


Жанр: комедія, мелодрама
Країна: США



Кінокомпанія: New Line Cinema, Tapestry Films, Avery Pix
Режисер: Девід Добкін
Актори: Овен Вілсон, Вінс Вон, Крістофер Вокен, Рейчел МакАдамс , Джейн Сеймур, Айла Фішер, Еллен Альбертіні Дау, Кейр О`Доннелл, Бредлі Купер, Рон Кенада, Ребекка Де Морней, Генрі Гібсон, Кетрін Джустен, Двайт Йоакам, Патріція Плейс, Діора Берд, , Джофф Стульц, Ларрі Джо Кемпбелл, Вілл Феррелл, Карсон Елрод

Сюжет:
Історія про відчайдушні пригоди двох завзятих холостяків: Джона і Джеремі, які винайшли приголомшливий спосіб знайомства з дівчатами. Вони придумують собі «легенди», проникають на чужі весілля і одержують задоволення від безкоштовної їжі, шампанського і безлічі красивих жінок, які готові на все, щоб знайти собі чоловіка.
Але краща частина плану - це вчасно зникнути під ранок, щоб пані серця не встигла натякнути на які-небудь зобов'язання. Тільки вся ця тактика розумних бабіїв летить в прірву , коли Джон несподівано для самого себе закохується. Завоювати серце коханої, значить піти на крайній крок: увірватися на весілля і вкрасти наречену…


Тривалість: 02:07:00
Якість:
Відео:
кодек: H.265 (HEVC)
розмір кадру: 1920 х 816
бітрейт: 4 382 кб/с
бітова глибина: 10 біт
Увага! Перед завантаженням переконайтесь, що ваш пристрій відтворення (та/або ПЗ) підтримує H.265 (HEVC)

Аудіо # 1: ,
мова: українська
переклад: двоголосий закадровий
кодек: 5.1
бітрейт: 384 кб/с

Аудіо # 2:
мова: англійська
переклад: оригінал
кодек: 5.1
бітрейт: 226 кб/с

Субтитри # 1:
мова: українська (на місця без перекладу)
тип: програмні (м'які)
формат: *.srt

Субтитри # 2:
мова: англійська
тип: програмні (м'які)
формат: *.srt
Info
General
Unique ID : 71693115630363745676154272582185702602 (0x35EF9781822F5372ECB4D7E67A72D4CA)
Complete name : E:\video\Wedding Crashers (2005) 1080p H.265 [UKR_ENG].
Format :
Format version : Version 4 / Version 2
File size : 4.43 GiB
Duration : 2 h 7 min
Overall bit rate : 4 995 kb/s
Movie name : Wedding Crashers (2005)
Encoded date : UTC 2018-07-07 12:04:02
Writing application : v22.0.0 ('At The End Of The World') 64-bit
Writing library : libebml v1.3.5 + v1.4.8
Cover : Yes
Attachments : Cover.jpg

Video
ID : 1
Format : HEVC
Format/Info : High Efficiency Video Coding
Format profile : Main [email protected]@Main
Codec ID : V_MPEGH/ISO/HEVC
Duration : 2 h 7 min
Bit rate : 4 382 kb/s
Width : 1 920 pixels
Height : 816 pixels
Display aspect ratio : 2.35:1
Frame rate mode : Constant
Frame rate : 23.976 (24000/1001) FPS
Color space : YUV
Chroma subsampling : 4:2:0
Bit depth : 10 bits
Bits/(Pixel*Frame) : 0.117
Stream size : 3.89 GiB (88%)
Writing library : x265 2.7+1-2aa737a99f51:[Windows][GCC 7.3.0][64 bit] 10bit
Encoding settings : cpuid=1173503 / frame-threads=3 / numa-pools=8 / wpp / no-pmode / no-pme / no-psnr / no-ssim / log-level=2 / input-csp=1 / input-res=1920x816 / interlace=0 / total-frames=182716 / level-idc=0 / high-tier=1 / uhd-bd=0 / ref=4 / no-allow-non-conformance / no-repeat-headers / annexb / no-aud / no-hrd / info / hash=0 / no-temporal-layers / open-gop / min-keyint=23 / keyint=250 / gop-lookahead=0 / bframes=4 / b-adapt=2 / b-pyramid / bframe-bias=0 / rc-lookahead=25 / lookahead-slices=4 / scenecut=40 / radl=0 / no-intra-refresh / ctu=64 / min-cu-size=8 / rect / no-amp / max-tu-size=32 / tu-inter-depth=1 / tu-intra-depth=1 / limit-tu=0 / rdoq-level=2 / dynamic-rd=0.00 / no-ssim-rd / signhide / no-tskip / nr-intra=0 / nr-inter=0 / no-constrained-intra / strong-intra-smoothing / max-merge=3 / limit-refs=3 / limit-modes / me=3 / subme=3 / merange=57 / temporal-mvp / weightp / no-weightb / no-analyze-src-pics / deblock=0:0 / sao / no-sao-non-deblock / rd=4 / no-early-skip / rskip / no-fast-intra / no-tskip-fast / no-cu-lossless / no-b-intra / no-splitrd-skip / rdpenalty=0 / psy-rd=2.00 / psy-rdoq=1.00 / no-rd-refine / no-lossless / cbqpoffs=0 / crqpoffs=0 / rc=abr / bitrate=4382 / qcomp=0.60 / qpstep=4 / stats-write=0 / stats-read=2 / cplxblur=20.0 / qblur=0.5 / ipratio=1.40 / pbratio=1.30 / aq-mode=2 / aq-strength=1.00 / cutree / zone-count=0 / no-strict-cbr / qg-size=32 / no-rc-grain / qpmax=69 / qpmin=0 / no-const-vbv / sar=0 / overscan=0 / videoformat=5 / range=0 / colorprim=2 / transfer=2 / colormatrix=2 / chromaloc=0 / display-window=0 / max-cll=0,0 / min-luma=0 / max-luma=1023 / log2-max-poc-lsb=8 / vui-timing-info / vui-hrd-info / slices=1 / no-opt-qp-pps / no-opt-ref-list-length-pps / multi-pass-opt-rps / scenecut-bias=0.05 / no-opt-cu-delta-qp / aq-motion / no-hdr / no-hdr-opt / no-dhdr10-opt / analysis-reuse-level=5 / scale-factor=0 / refine-intra=0 / refine-inter=0 / refine-mv=0 / no-limit-sao / ctu-info=0 / no-lowpass-dct / refine-mv-type=0 / copy-pic=1
Default : Yes
Forced : No

Audio #1
ID : 2
Format : AC-3
Format/Info : Audio Coding 3
Codec ID : A_AC3
Duration : 2 h 7 min
Bit rate mode : Constant
Bit rate : 384 kb/s
Channel(s) : 6 channels
Channel positions : Front: L C R, Side: L R, LFE
Sampling rate : 48.0 kHz
Frame rate : 31.250 FPS (1536 SPF)
Bit depth : 16 bits
Compression mode : Lossy
Stream size : 349 MiB (8%)
Title : Ukr 6ch 384 kbps
Language : Ukrainian
Service kind : Complete Main
Default : Yes
Forced : No

Audio #2
ID : 3
Format :
Format/Info : Advanced Audio Codec
Format profile : LC
Codec ID : A_AAC-2
Duration : 2 h 7 min
Bit rate : 226 kb/s
Channel(s) : 6 channels
Channel positions : Front: L C R, Side: L R, LFE
Sampling rate : 48.0 kHz
Frame rate : 46.875 FPS (1024 SPF)
Compression mode : Lossy
Stream size : 205 MiB (5%)
Title : Original ACc 6ch 640 kbps
Language : English
Default : No
Forced : No

Text #1
ID : 4
Format : UTF-8
Codec ID : S_TEXT/UTF8
Codec ID/Info : UTF-8 Plain Text
Duration : 1 h 3 min
Bit rate : 16 b/s
Count of elements : 137
Stream size : 7.64 KiB (0%)
Language : Ukrainian
Default : Yes
Forced : No

Text #2
ID : 5
Format : UTF-8
Codec ID : S_TEXT/UTF8
Codec ID/Info : UTF-8 Plain Text
Duration : 2 h 0 min
Bit rate : 86 b/s
Count of elements : 1998
Stream size : 76.2 KiB (0%)
Language : English
Default : No
Forced : No

Menu
00:00:00.000 : :Title Credits
00:03:37.000 : :It's Wedding Season
00:15:30.400 : :Greatest Crash of All Time
00:23:43.900 : :The Angles
00:39:04.960 : :First Time
00:43:54.800 : :Touch Football
00:49:25.030 : :Leg's Cut
00:52:55.230 : :Dinner
00:59:19.900 : :Mrs. Cleary
01:06:41.130 : :A Long Night
01:11:27.130 : :Rule Number One
01:18:13.390 : :Quail Hunting
01:21:14.290 : :Bike to the Beach
01:26:14.060 : :The Announcement
01:28:32.160 : :Confession
01:35:21.730 : :Engagement Party
01:41:15.400 : :Love Doesn't Exist
01:47:28.460 : :Chazz
01:53:24.730 : :The Best Man
02:00:45.730 : :End Credits
Скріншоти



Джерело:
Особиста оцінка: 0 - не дивився


ЗАЛИШАЙТЕСЬ ЯКОМОГА ДОВШЕ НА РОЗДАЧІ!
ЗАВАНТАЖИВ САМ - ДАЙ ЗАВАНТАЖИТИ ІНШИМ


 Трекер:    Зареєстрований   

Завантажити / скачати фільм українською



відео для новачків



 Зареєстрований:   2018-07-24 15:15
 Розмір:   4.43 GB 
 Оцінка фільму:   7.8/10 (Голосів: 6)
   
Ваш часовий пояс: GMT + 2 Години

Нова тема   Відповісти