Божевільна / Unsane (2018) Remux 1080p Ukr/Eng | Sub Ukr/Eng

Нові коментарі

Нова тема   Відповісти
Автор Повідомлення
staf777 
Відео Гуртом - підтримка та поширення
Відео Гуртом - підтримка та поширення


З нами з: 16.11.16
Востаннє: 19.01.20
Повідомлень: 3336

2018-07-23 22:01  
Божевільна / Unsane (2018) Remux 1080p Ukr/Eng | Sub Ukr/Eng





Жанр: жахи, трилер
Країна: США



Кінокомпанія: Extension 765, New Regency Pictures, Regency Enterprises
Режисер: Стівен Содерберг
Актори: Клер Фой, Джошуа Леонард, Джей Феро, Джуно Темпл, Емі Ірвінг, Аймі Маллінз, Сара Стайлс, Зак Черрі, Марк Кадиш

Сюжет:
Молоду жінку без її згоди закривають в психіатричній лікарні, де вона стикається зі своїм найбільшим страхом. Але чи є те, що відбувається, реальністю, чи це все її галюцинація?


Тривалість: 01:37:48
Якість: Remux 1080р

Відео:
кодек:
розмір кадру: 1920x1080
бітрейт: 31.8 Mб/с

Аудіо # 1:
мова: українська
переклад: професійний дубльований
кодек: 5.1
бітрейт: 448 кб/с

Аудіо # 2:
мова: англійська
переклад: оригінал
кодек: HD MA 5.1
бітрейт: 3072 кб/с

Субтитри:
мова: українська
тип: пререндерні
формат: *.pgs

Субтитри:
мова: англійська
тип: пререндерні
формат: *.pgs
Info
General
Unique ID : 151431477069973320605706257817875851638 (0x71ECA44149364BBB6D2BF8FDE6A92976)
Complete name : G:\Майбутні релізи\UNSANE_2018_EUR_BLUEBIRD\BDMV\STREAM\Unsane (2018) Remux 1080p [UKR_ENG] [Hurtom].
Format :
Format version : Version 4 / Version 2
File size : 24.2 GiB
Duration : 1 h 37 min
Overall bit rate mode : Variable
Overall bit rate : 35.4 Mb/s
Movie name : Unsane (2018) Remux 1080p [UKR_ENG] [Hurtom]
Encoded date : UTC 2018-07-31 15:39:02
Writing application : v24.0.0 ('Beyond The Pale') 64-bit
Writing library : libebml v1.3.6 + v1.4.9
Cover : Yes
Attachments : cover.jpg

Video
ID : 1
Format : AVC
Format/Info : Advanced Video Codec
Format profile : [email protected]
Format settings : CABAC / 4 Ref Frames
Format settings, CABAC : Yes
Format settings, ReFrames : 4 frames
Codec ID : V_MPEG4/ISO/AVC
Duration : 1 h 37 min
Bit rate mode : Variable
Bit rate : 31.8 Mb/s
Maximum bit rate : 35.0 Mb/s
Width : 1 920 pixels
Height : 1 080 pixels
Display aspect ratio : 16:9
Frame rate mode : Constant
Frame rate : 23.976 (24000/1001) FPS
Color space : YUV
Chroma subsampling : 4:2:0
Bit depth : 8 bits
Scan type : Progressive
Bits/(Pixel*Frame) : 0.639
Stream size : 21.7 GiB (90%)
Default : Yes
Forced : No

Audio #1
ID : 2
Format : AC-3
Format/Info : Audio Coding 3
Codec ID : A_AC3
Duration : 1 h 37 min
Bit rate mode : Constant
Bit rate : 448 kb/s
Channel(s) : 6 channels
Channel positions : Front: L C R, Side: L R, LFE
Sampling rate : 48.0 kHz
Frame rate : 31.250 FPS (1536 SPF)
Bit depth : 16 bits
Compression mode : Lossy
Stream size : 313 MiB (1%)
Title : [UA-DUB]
Language : Ukrainian
Service kind : Complete Main
Default : Yes
Forced : Yes

Audio #2
ID : 3
Format :
Format/Info : Digital Theater Systems
Format profile : MA / Core
Codec ID : A_DTS
Duration : 1 h 37 min
Bit rate mode : Variable / Constant
Bit rate : 3 072 kb/s / 1 509 kb/s
Channel(s) : 6 channels
Channel positions : Front: L C R, Side: L R, LFE
Sampling rate : 48.0 kHz
Frame rate : 93.750 FPS (512 SPF)
Bit depth : 24 bits
Compression mode : Lossless / Lossy
Stream size : 2.11 GiB (9%)
Language : English
Default : No
Forced : No

Text #1
ID : 4
Format : PGS
Muxing mode : zlib
Codec ID : S_HDMV/PGS
Codec ID/Info : Picture based subtitle format used on BDs/HD-DVDs
Duration : 1 h 36 min
Bit rate : 56.3 kb/s
Count of elements : 2442
Stream size : 39.1 MiB (0%)
Language : Ukrainian
Default : No
Forced : No

Text #2
ID : 5
Format : PGS
Muxing mode : zlib
Codec ID : S_HDMV/PGS
Codec ID/Info : Picture based subtitle format used on BDs/HD-DVDs
Duration : 1 h 36 min
Bit rate : 71.8 kb/s
Count of elements : 3164
Stream size : 49.8 MiB (0%)
Language : English
Default : No
Forced : No
Скріншоти




Джерело: &
Особиста оцінка: 0 - не дивився


Золотий реліз (завантажене не впливає на рейтинг)
 Трекер:    Зареєстрований   

Завантажити / скачати фільм українською



відео для новачків



 Зареєстрований:   2018-07-31 18:10
 Розмір:   24.16 GB 
 Оцінка фільму:   7.9/10 (Голосів: 15)
   
Інші релізи
   Божевільна / Unsane (2018) 1080p H.265 Ukr/Eng | Sub Ukr/Eng -Star-Lord-  3 / 0   5.26 GB   2019-02-04 13:33 
   Божевільна / Unsane (2018) leicheman  9 / 0   1.45 GB   2018-08-02 20:57 
   Божевільна / Unsane (2018) AVC Ukr/Eng | Sub Ukr/Eng 11FrYkT  7 / 0   2.05 GB   2018-07-30 21:33 
   Божевільна / Unsane (2018) 720p Ukr/Eng | Sub Ukr/Eng 11FrYkT  1 / 0   3.91 GB   2018-07-30 16:04 
   Божевільна / Unsane (2018) mini 1080p H.265 Ukr/Eng | Sub Ukr/Eng ukr_anonymous  1 / 0   3.5 GB   2018-07-24 14:23 
   Божевільна / Unsane (2018) 1080p Ukr/Eng | Sub Ukr/Eng staf777  4 / 0   11.48 GB   2018-07-22 16:40 
bot 
робот


З нами з: 30.09.07
Востаннє: 26.05.05
Повідомлень: 23040

2018-07-24 07:25  
Тему перенесено з Анонси релізів до форуму Фільми в HD


staf777

Uberwinder 
VIP


З нами з: 18.11.16
Востаннє: 19.01.20
Повідомлень: 277

2018-07-30 21:46  
Вітаю! Підкажіть, будь-ласка, оновлення звуку до багатоканального плануєте?
staf777 
Відео Гуртом - підтримка та поширення
Відео Гуртом - підтримка та поширення


З нами з: 16.11.16
Востаннє: 19.01.20
Повідомлень: 3336

2018-07-31 18:24  
Замінив доріжку з 
Ваш часовий пояс: GMT + 2 Години

Нова тема   Відповісти