Факультет / The Faculty (1998) 1080p 2xUkr/Eng | Sub Ukr/Eng

Нові коментарі

Нова тема   Відповісти
Останній раз роздавалося newoleksa (2020-01-01)
Автор Повідомлення
boroznaya 
Попереджень: 1
Попереджень: 1 


З нами з: 02.11.12
Востаннє: 29.09.20
Повідомлень: 2938

2018-07-23 20:26  
Факультет / The Faculty (1998) 1080p 2xUkr/Eng | Sub Ukr/Eng

Факультет / The Faculty (1998) 1080p 2xUkr/Eng | Sub Ukr/Eng

Ще постер!

І ти вважав, що твої учителі були дивні ...


Жанр: жахи, комедія, трилер, детектив, фантастика
Країна: США



Кінокомпанія: Dimension Films, Los Hooligans Productions
Режисер: Роберт Родрігес
Сценарій: Кевін Вільямсон, Девід Вектер, Брюс Кіммел
Продюсер: Елізабет Авеллан, Роберт Родрігес, Білл Скотт, Тамара Сміт, Боб Вайнштейн
Оператор: Енріке Шедьяк
Композитор: Марко Белтрамі
Актори: Джош Гартнетт, Елайджа Вуд, Джордана Брюстер, Клеа ДюВалл, Лора Гаррис, Шон Хетасі, Сальма Гаєк, Фамке Янссен, Пайпер Лорі, Крістофер МакДональд, Бібі Ньювірт, Роберт Патрік
Бюджет: $15 000 000
Маркетинг: $30 000 000
Збори в США: $40 283 321

Сюжет:
Коледж Геррінгтон давно втратив свою первозданність. Його обшарпані коридори щоденно заповнює майбутнє Америки - одинаки і лідери, піжони і наркомани, розумники і кретини. Схожі на підлітків завжди і всюди, вони ведуть постійну боротьбу один з одним. Але одного разу студенти роблять жахливе відкриття: їх викладачі - прибульці з іншої планети! Зіткнувшись з викликом, який вони навіть не могли собі уявити, колишні вороги змушені об'єднатися, щоби врятуватись від іншопланетного вторгнення...

Рейтинг MPAA: R - Особи, які не досягли 17-річного віку, допускаються на сеанс тільки в супроводі батьків або законного представника!
Чи знаєте Ви, що...
* У туалеті можна помітити напис «Tito and Tarantula». Дана група написала частину музики і зіграла в двох інших картинах Родрігеза - «Відчайдушний» (1995) і «Від заходу до світанку» (1996).
* Мерібет відмовляється приймати наркотики, заявивши, що у неї алергія. На що Делайл (Джордана Брюстер) відповідає: «А я португалка». У реальному житті Брюстер вільно говорить португальсько..
* Джон Стюарт виконав роль професора Едварда Ферлонга. Актора Едварда Ферлонга, який зіграв Джона Коннора в «Термінаторі 2: Судний день» (1991), переслідував Т-1000, в ролі якого знявся Роберт Патрік, який зіграв у «Факультеті» тренера Джо Вілліса.
* У сцені, де ми чуємо оголошення про те, що школярі повинні пройти в учительську, одного з них звуть Томмі Нікс. У реальному житті Томмі Нікс - друг Роберта Родрігеза з часів коледжу. Він допомагав Роберту в написанні сценарію до «Гонщикам» (1994)
* Авто Зіка - 1970 Pontiac GTO.
* Роль Делайли була спеціально написана для Харизми Карпентер, але акторка відкинула пропозицію, вважаючи, що даний персонаж дуже схожий на її героїню в «Баффі - винищувачка вампірів» (1997).
* Герої фільму одягнені в одяг «Tommy Hilfiger». Актори, які зіграли головні ролі, також з'явилися в телевізійних роликах і друкованій рекламі даного бренду.
Тривалість: 01:44:11
Якість: 1080p
Відео:
кодек:
розмір кадру: 1920x1080
бітрейт: 13,8 Mб/с

Аудіо # 1: , ,
мова: українська
переклад: двоголосий закадровий
кодек: 5.1
бітрейт: 448 кб/с

Аудіо # 2: , ,
мова: українська
переклад: двоголосий закадровий
кодек: 2.0
бітрейт: 192 кб/с
примітка: переклад однаковий у доріжках 1-2, різниця у кількості каналів та кращій якості з новіших записів у доріжках 2.0

Аудіо # 3:
мова: українська
переклад: двоголосий закадровий
кодек: 5.1
бітрейт: 448 кб/с

Аудіо # 4:
мова: українська
переклад: двоголосий закадровий
кодек: 2.0
бітрейт: 192 кб/с
примітка: переклад однаковий у доріжках 3-4, різниця у кількості каналів та кращій якості з новіших записів у доріжках 2.0

Аудіо # 5:
мова: англійська
переклад: оригінал
кодек: 5.1
бітрейт: 1510 кб/с

Субтитри # 1:
мова: українська
тип: програмні (м'які)
формат: *.srt
переклад: з російської _oles, редагування w2958l

Субтитри # 2:
мова: англійська
тип: програмні (м'які)
формат: *.srt
Info
Код:
[b]General[/b]
Unique ID                   : 179991764639290679331247185911056725606 (0x876927262BBCD9B85FF0389628B07666)
Complete name               : D:\Фільми\Готові релізи\Faculty (1998) [2xUkr, Eng, sub. Ukr, Eng] 1080p [Hurtom] by Zhuk_Mikola.
Format                      :
Format version              : Version 4 / Version 2
File size                   : 12.1 GiB
Duration                    : 1 h 44 min
Overall bit rate            : 16.6 Mb/s
Encoded date                : UTC 2018-07-20 19:56:39
Writing application         : v20.0.0 ('I Am The Sun') 64-bit
Writing library             : libebml v1.3.5 + v1.4.8

[b]Video[/b]
ID                          : 1
Format                      : AVC
Format/Info                 : Advanced Video Codec
Format profile              : [email protected]
Format settings             : CABAC / 4 Ref Frames
Format settings, CABAC      : Yes
Format settings, ReFrames   : 4 frames
Codec ID                    : V_MPEG4/ISO/AVC
Duration                    : 1 h 44 min
Bit rate                    : 13.8 Mb/s
Width                       : 1 920 pixels
Height                      : 1 080 pixels
Display aspect ratio        : 16:9
Frame rate mode             : Constant
Frame rate                  : 23.976 (24000/1001) FPS
Color space                 : YUV
Chroma subsampling          : 4:2:0
Bit depth                   : 8 bits
Scan type                   : Progressive
Bits/(Pixel*Frame)          : 0.278
Stream size                 : 10.0 GiB (83%)
Writing library             : core 115 r1995 c1e60b9
Encoding settings           : cabac=1 / ref=4 / deblock=1:-3:-3 / analyse=0x3:0x113 / me=umh / subme=10 / psy=1 / psy_rd=0.90:0.00 / mixed_ref=1 / me_range=64 / chroma_me=1 / trellis=2 / 8x8dct=1 / cqm=0 / deadzone=21,11 / fast_pskip=1 / chroma_qp_offset=-2 / threads=9 / sliced_threads=0 / nr=0 / decimate=1 / interlaced=0 / bluray_compat=0 / constrained_intra=0 / bframes=6 / b_pyramid=2 / b_adapt=2 / b_bias=0 / direct=1 / weightb=1 / open_gop=0 / weightp=2 / keyint=250 / keyint_min=23 / scenecut=40 / intra_refresh=0 / rc=2pass / mbtree=0 / bitrate=13800 / ratetol=1.0 / qcomp=0.60 / qpmin=0 / qpmax=69 / qpstep=4 / cplxblur=20.0 / qblur=0.5 / ip_ratio=1.40 / pb_ratio=1.30 / aq=1:1.00
Language                    : English
Default                     : Yes
Forced                      : No

[b]Audio #1[/b]
ID                          : 2
Format                      : AC-3
Format/Info                 : Audio Coding 3
Codec ID                    : A_AC3
Duration                    : 1 h 44 min
Bit rate mode               : Constant
Bit rate                    : 448 kb/s
Channel(s)                  : 6 channels
Channel positions           : Front: L C R, Side: L R, LFE
Sampling rate               : 48.0 kHz
Frame rate                  : 31.250 FPS (1536 SPF)
Bit depth                   : 16 bits
Compression mode            : Lossy
Stream size                 : 334 MiB (3%)
Title                       : Двоголосий закадровий [5.1 Ch], ТЕТ, 2+2, 1+1
Language                    : Ukrainian
Service kind                : Complete Main
Default                     : Yes
Forced                      : No

[b]Audio #2[/b]
ID                          : 3
Format                      : AC-3
Format/Info                 : Audio Coding 3
Codec ID                    : A_AC3
Duration                    : 1 h 44 min
Bit rate mode               : Constant
Bit rate                    : 192 kb/s
Channel(s)                  : 2 channels
Channel positions           : Front: L R
Sampling rate               : 48.0 kHz
Frame rate                  : 31.250 FPS (1536 SPF)
Bit depth                   : 16 bits
Compression mode            : Lossy
Stream size                 : 143 MiB (1%)
Title                       : Двоголосий закадровий [2.0 Ch], ТЕТ, 2+2, 1+1
Language                    : Ukrainian
Service kind                : Complete Main
Default                     : No
Forced                      : No

[b]Audio #3[/b]
ID                          : 4
Format                      : AC-3
Format/Info                 : Audio Coding 3
Codec ID                    : A_AC3
Duration                    : 1 h 44 min
Bit rate mode               : Constant
Bit rate                    : 448 kb/s
Channel(s)                  : 6 channels
Channel positions           : Front: L C R, Side: L R, LFE
Sampling rate               : 48.0 kHz
Frame rate                  : 31.250 FPS (1536 SPF)
Bit depth                   : 16 bits
Compression mode            : Lossy
Stream size                 : 334 MiB (3%)
Title                       : Двоголосий закадровий [5.1 Ch], Новий канал
Language                    : Ukrainian
Service kind                : Complete Main
Default                     : No
Forced                      : No

[b]Audio #4[/b]
ID                          : 5
Format                      : AC-3
Format/Info                 : Audio Coding 3
Codec ID                    : A_AC3
Duration                    : 1 h 44 min
Bit rate mode               : Constant
Bit rate                    : 192 kb/s
Channel(s)                  : 2 channels
Channel positions           : Front: L R
Sampling rate               : 48.0 kHz
Frame rate                  : 31.250 FPS (1536 SPF)
Bit depth                   : 16 bits
Compression mode            : Lossy
Stream size                 : 143 MiB (1%)
Title                       : Двоголосий закадровий [2.0 Ch], Новий канал
Language                    : Ukrainian
Service kind                : Complete Main
Default                     : No
Forced                      : No

[b]Audio #5[/b]
ID                          : 6
Format                      :
Format/Info                 : Digital Theater Systems
Codec ID                    : A_DTS
Duration                    : 1 h 44 min
Bit rate mode               : Constant
Bit rate                    : 1 509 kb/s
Channel(s)                  : 6 channels
Channel positions           : Front: L C R, Side: L R, LFE
Sampling rate               : 48.0 kHz
Frame rate                  : 93.750 FPS (512 SPF)
Bit depth                   : 24 bits
Compression mode            : Lossy
Delay relative to video     : 11 ms
Stream size                 : 1.10 GiB (9%)
Language                    : English
Default                     : No
Forced                      : No

[b]Text #1[/b]
ID                          : 7
Format                      : UTF-8
Codec ID                    : S_TEXT/UTF8
Codec ID/Info               : UTF-8 Plain Text
Duration                    : 1 h 38 min
Bit rate                    : 78 b/s
Count of elements           : 919
Stream size                 : 56.9 KiB (0%)
Language                    : Ukrainian
Default                     : Yes
Forced                      : No

[b]Text #2[/b]
ID                          : 8
Format                      : UTF-8
Codec ID                    : S_TEXT/UTF8
Codec ID/Info               : UTF-8 Plain Text
Duration                    : 1 h 38 min
Bit rate                    : 56 b/s
Count of elements           : 1122
Stream size                 : 40.6 KiB (0%)
Language                    : English
Default                     : No
Forced                      : No
Скріншоти









За запис з ТБ подяка панам: slavik_v_z, Bohdan237, Neytreenor (новіщі записи доріжок 2.0), greg_7 та DareDevil96 (старіші записи, у доріжках псевдо-5.1); за синхронізацію панам Arsenfpu (2.0) та _oles (псевдо-5.1), за постери панам - realnitro та Zhuk_Mikola!

Джерело: &
Особиста оцінка: 10 - без зайвих вагань рекомендую всім!
Над релізом працював -
Не забуваємо подякувати релізеру!


Срібний реліз (на рейтинг впливає 50% завантаженого)
 Трекер:    Зареєстрований   

Завантажити / скачати фільм українською



відео для новачків



 Зареєстрований:   2018-07-27 14:12
 Розмір:   12.07 GB 
 Оцінка фільму:   9.2/10 (Голосів: 5)
   
Інші релізи
   Факультет / The Faculty (1998) Remux 1080p 3xUkr/Eng | Sub Ukr/Eng MakRA  0 / 0   28.77 GB   2020-04-05 01:43 
   Факультет / The Faculty (1998) AVC 3xUkr | Sub Ukr/Eng Maters  3 / 0   1.91 GB   2019-12-10 00:49 
   Факультет / The Faculty (1998) 720p 3xUkr/Eng | Sub Ukr/Eng Hurtomivets'  2 / 0   4.56 GB   2019-06-09 08:58 
   Факультет / The Faculty (1998) 1080p H.265 3xUkr/Eng | Sub Ukr/Eng -Star-Lord-  4 / 0   3.86 GB   2019-06-03 10:07 
   Факультет / The Faculty (1998) AVC 2xUkr/Eng | Sub Ukr Arsenfpu  4 / 0   2.54 GB   2017-12-09 00:50 
   Факультет / The Faculty (1998) [MP4, 640x] apvAltisimo  0 / 0   621 MB   2016-04-03 15:33 
   Факультет / The Faculty (1998) 2xUkr/Eng | Sub Ukr/Eng _oles  0 / 0   2.51 GB   2012-02-04 11:10 
bot 
робот


З нами з: 30.09.07
Востаннє: 26.05.05
Повідомлень: 25647

2018-07-27 13:56  
Тему перенесено з Анонси релізів до форуму Фільми в HD


boroznaya

Ваш часовий пояс: GMT + 2 Години

Нова тема   Відповісти