Повернення болотяного чудовиська / The Return of Swamp Thing (1989) Remux 1080p Ukr/Eng | Sub Eng

Нові коментарі

Нова тема   Відповісти
Автор Повідомлення
urij546724 
Відео Гуртом - фільмокрай
Відео Гуртом - фільмокрай


З нами з: 16.03.10
Востаннє: 09.12.18
Повідомлень: 5500

2018-07-23 15:54  
Повернення болотяного чудовиська / The Return of Swamp Thing (1989) Remux 1080p Ukr/Eng | Sub Eng

Повернення болотяного чудовиська / The Return of Swamp Thing (1989) Remux 1080p Ukr/Eng | Sub Eng


Жанр: фантастика, жахи, комедія, екшн, пригодницький
Країна: США



Кіностудія / кінокомпанія: Lightyear Entertainment
Режисер: Джим Вайнорські / Jim Wynorski
Актори: Луї Журдан (Louis Jourdan), Гізер Локлір (Heather Locklear), Сара Дуглас (Sarah Douglas), Дік Дурок (Dick Durock), Джо Сагал (Joey Sagal), Ейс Маск (Ace Mask)...

Сюжет:
Прекрасна Абігейл приїжджає в лабораторію свого вітчима доктора Аркейна, щоб дізнатися таємницю смерті її матері. На жаль, Аркейн хоче позбавити її життя для створення своєї формули безсмертя. На допомогу Абігейл приходить колишній доктор Холланд (а нині болотне чудовисько) і забирає її на болото, де вони незабаром шалено закохуються одне в одного. Але їх роман стає під загрозою, коли Аркейн починає полювання на цю дивну парочку з цілим арсеналом зброї...

Екранізація за коміксами DC Comics.


Тривалість: 01:27:02
Якість: Remux 1080p
Відео:
кодек:
розмір кадру: 1920 х 1080
бітрейт: ~19913 кб/с (змінний)
частота кадрів: 24 к/с (fps)

Аудіо #1:
мова: українська
переклад: двоголосий закадровий
кодек: 1.0
бітрейт: 192 кб/с
запис звуку з каналу: ТВ4

Аудіо #2:
мова: англійська
переклад: оригінал
кодек: 2.0
бітрейт: 1454 кб/с

Аудіо #3:
мова: англійська
переклад: оригінал
кодек: 5.1
бітрейт: 448 кб/с

Субтитри #1:
мова: англійська
тип: програмні (м'які)
формат: *.srt

Субтитри #2 (SDH):
мова: англійська
тип: програмні (м'які)
формат: *.srt
Media info:
General
Unique ID : 230987672106253780264225110059709849999 (0xADC69B81CD58E7FDB76AAF7533FF618F)
Format :
Format version : Version 2
File size : 13.4 GiB
Duration : 1 h 27 min
Overall bit rate mode : Variable
Overall bit rate : 22.0 Mb/s
Movie name : The Return of Swamp Thing (1989) [Ukr.TV4_2xEng] Remux 1080p [Hurtom] by urij54672
Encoded date : UTC 2018-07-22 18:09:06
Writing application : v2.9.7 ('Tenderness') built on Jul 1 2009 18:43:35
Writing library : libebml v0.7.7 + v0.8.1
Attachments : The Return of Swamp Thing (1989) [Ukr.TV4_2xEng] Remux 1080p [Hurtom] by urij54672.jpg

Video
ID : 1
Format : AVC
Format/Info : Advanced Video Codec
Format profile : [email protected]
Format settings : CABAC / 4 Ref Frames
Format settings, CABAC : Yes
Format settings, ReFrames : 4 frames
Format settings, GOP : M=3, N=24
Codec ID : V_MPEG4/ISO/AVC
Duration : 1 h 27 min
Bit rate mode : Variable
Maximum bit rate : 35.0 Mb/s
Width : 1 920 pixels
Height : 1 080 pixels
Display aspect ratio : 16:9
Frame rate mode : Constant
Frame rate : 24.000 FPS
Standard : NTSC
Color space : YUV
Chroma subsampling : 4:2:0
Bit depth : 8 bits
Scan type : Progressive
Title : The Return of Swamp Thing (1989) Remux 1080p [Hurtom] by urij546724
Language : Ukrainian
Default : Yes
Forced : No
Color range : Limited
Color primaries : BT.709
Transfer characteristics : BT.709
Matrix coefficients : BT.709
Statistics Tags Issue : v9.8.0 ('Kuglblids') 32bit 2017-09-14 18:02:52 / v2.9.7 ('Tenderness') built on Jul 1 2009 18:43:35 2018-07-22 18:09:06
FromStats_BitRate : 19920057
FromStats_Duration : 01:27:02.459000000
FromStats_FrameCount : 125339
FromStats_StreamSize : 13003960405

Audio #1
ID : 2
Format : AC-3
Format/Info : Audio Coding 3
Codec ID : A_AC3
Duration : 1 h 27 min
Bit rate mode : Constant
Bit rate : 192 kb/s
Channel(s) : 1 channel
Channel positions : Front: C
Sampling rate : 48.0 kHz
Frame rate : 31.250 FPS (1536 SPF)
Bit depth : 16 bits
Compression mode : Lossy
Stream size : 120 MiB (1%)
Title : Українська доріжка
Language : Ukrainian
Service kind : Complete Main
Default : Yes
Forced : Yes

Audio #2
ID : 3
Format :
Format/Info : Free Lossless Audio Codec
Codec ID : A_FLAC
Duration : 1 h 27 min
Bit rate mode : Variable
Channel(s) : 2 channels
Channel positions : Front: L R
Sampling rate : 48.0 kHz
Bit depth : 24 bits
Title : Оригінальна доріжка 2.0 ~1454 kbps
Writing library : libFLAC 1.2.1 (UTC 2007-09-17)
Language : English
Default : No
Forced : No
Statistics Tags Issue : v9.8.0 ('Kuglblids') 32bit 2017-09-14 18:02:52 / v2.9.7 ('Tenderness') built on Jul 1 2009 18:43:35 2018-07-22 18:09:06
FromStats_BitRate : 1453569
FromStats_Duration : 01:27:02.460000000
FromStats_FrameCount : 61201
FromStats_StreamSize : 948900764

Audio #3
ID : 4
Format : AC-3
Format/Info : Audio Coding 3
Codec ID : A_AC3
Duration : 1 h 27 min
Bit rate mode : Constant
Bit rate : 448 kb/s
Channel(s) : 6 channels
Channel positions : Front: L C R, Side: L R, LFE
Sampling rate : 48.0 kHz
Frame rate : 31.250 FPS (1536 SPF)
Bit depth : 16 bits
Compression mode : Lossy
Stream size : 279 MiB (2%)
Title : Оригінальна доріжка 5.1 448 kbps
Language : English
Service kind : Complete Main
Default : No
Forced : No
Statistics Tags Issue : v9.8.0 ('Kuglblids') 32bit 2017-09-14 18:02:52 / v2.9.7 ('Tenderness') built on Jul 1 2009 18:43:35 2018-07-22 18:09:06
FromStats_BitRate : 448000
FromStats_Duration : 01:27:02.464000000
FromStats_FrameCount : 163202
FromStats_StreamSize : 292457984

Text #1
ID : 5
Format : UTF-8
Codec ID : S_TEXT/UTF8
Codec ID/Info : UTF-8 Plain Text
Title : Оригінальні субтитри (SRT)
Language : English
Default : Yes
Forced : No
Statistics Tags Issue : v9.8.0 ('Kuglblids') 32bit 2017-09-14 18:02:52 / v2.9.7 ('Tenderness') built on Jul 1 2009 18:43:35 2018-07-22 18:09:06
FromStats_BitRate : 53
FromStats_Duration : 01:26:26.336000000
FromStats_FrameCount : 1048
FromStats_StreamSize : 34799

Text #2
ID : 6
Format : UTF-8
Codec ID : S_TEXT/UTF8
Codec ID/Info : UTF-8 Plain Text
Title : Оригінальні субтитри (SDH)
Language : English
Default : No
Forced : No
Statistics Tags Issue : v9.8.0 ('Kuglblids') 32bit 2017-09-14 18:02:52 / v2.9.7 ('Tenderness') built on Jul 1 2009 18:43:35 2018-07-22 18:09:06
FromStats_BitRate : 58
FromStats_Duration : 01:26:26.336000000
FromStats_FrameCount : 1182
FromStats_StreamSize : 38016

Menu
00:00:00.000 : en:00:00:00.000
00:10:57.375 : en:00:10:57.375
00:23:19.667 : en:00:23:19.667
00:31:19.125 : en:00:31:19.125
00:43:31.833 : en:00:43:31.833
00:52:05.125 : en:00:52:05.125
01:03:48.625 : en:01:03:48.625
01:18:33.542 : en:01:18:33.542
Скріншоти:





Трейлер:
Семпл
Джерело 1_________Джерело 2_________Джерело 3_________Джерело 4_________Джерело 5
У випадку, якщо з усіх джерел семпл видалять, прохання повідомити мені у ПРИВАТ


Подяка:

1. Пану urij546724 за запис звуку з ТБ.


Джерело:





Золотий реліз (завантажене не впливає на рейтинг)
 Трекер:    Зареєстрований   

Завантажити / скачати фільм українською



відео для новачків



 Зареєстрований:   2018-07-23 15:54
 Розмір:   13.39 GB 
 Оцінка фільму:   10/10 (Голосів: 6)
 Прохання залишати коментарі і не тікати з роздачі.
   
-_-В_E_N_D_Е_R-_- 
Забанено
Забанено


З нами з: 11.07.18
Востаннє: 23.08.18
Повідомлень: 530

2018-07-23 20:44  
Це типу"приквел" до Форми води

Додано через 1 хвилину 4 секунди:

Дивно, чому ж тут нема такого ажіотажу

Ваш часовий пояс: GMT + 2 Години

Нова тема   Відповісти