Ніккі-диявол молодший / Little Nicky (2000)

Нові коментарі

Нова тема   Відповісти
Автор Повідомлення
Anonymous 







2018-07-23 07:52  
Ніккі-диявол молодший / Little Nicky (2000)

Ніккі-диявол молодший / Little Nicky (2000)


Жанр: комедія, мелодрама, фентезі
Країна: США



Кінокомпанія: New Line Cinema, Avery Pix, Happy Madison Productions, RSC Media, Robert Simonds Productions
Режисер: Стівен Брілл / Steven Brill
Актори:
Адам Сендлер / Adam Sandler, Патрісія Аркетт / Patricia Arquette, Гарві Кейтель / Harvey Keitel, Ріс Іванс / Rhys Ifans, Різ Візерспун / Reese Witherspoon, Квентін Тарантіно / Quentin Tarantino, Роб Шнайдер / Rob Schneider, Томмі Лістер / Tommy Lister, Пітер Данте / Peter Dante, Джон Ловіц / Jon Lovitz, Оззі Осборн / Ozzy Osbourne, Родні Денджерфілд / Rodney Dangerfield, Аллен Коверт / Allen Covert, Роберт Шмігель / Robert Smigel, Джекі Сендлер / Jackie Sandler, Майкл Маккін / Michael McKean, Леа Лейл / Leah Lail та інші

Сюжет:
Коли підійшов час Дияволу передати пекло одному зі своїх спадкоємців і піти на спокій, він вирішив залишити владу за собою. Але двом із них це не сподобалося і вони вирішують бігти на Землю, щоб там створити власне пекло. Від того, що діти виявилися на Землі, диявол став розпадатися на частини. Він посилає за бунтівними братами свого молодшого і улюбленого сина, Ніккі. Незнайомий з правилами людського світу «бісеня» потрапляє в низку великих і малих пригод і врешті-решт закохується в просту людську дівчину. І ось тут починається найстрашніше і найсмішніше ...


Тривалість: 01:30:17
Якість: [Hurtom]
Відео:
кодек:
розмір кадру: 704х384
бітрейт: 2098 кб/с

Аудіо:
мова: українська
переклад: багатоголосий закадровий
кодек: 2.0
бітрейт: 192 кб/с
Info
Код:
General
Complete name               : Little Nicky (2000) [Ukr] [Hurtom].avi
Format                      : AVI
Format/Info                 : Audio Video Interleave
File size                   : 1.45 GiB
Duration                    : 1 h 30 min
Overall bit rate            : 2 299 kb/s
Movie name                  : Ніккі-диявол молодший / Little Nicky (2000) [Ukr] [Hurtom]
Genre                       : комедія, мелодрама, фентезі
Recorded date               : 23.07.2018
Writing application         : VirtualDubModUkr 1.5.10.2 (build 2542/release)
Writing library             : VirtualDubMod build 2542/release
Comment                     : https://toloka.to/t93647

Video
ID                          : 0
Format                      : MPEG-4 Visual
Format profile              : Advanced [email protected]
Format settings             : BVOP1
Format settings, BVOP       : 1
Format settings, QPel       : No
Format settings, GMC        : No warppoints
Format settings, Matrix     : Default (MPEG)
Codec ID                    :
Codec ID/Hint               :
Duration                    : 1 h 30 min
Bit rate                    : 2 098 kb/s
Width                       : 704 pixels
Height                      : 384 pixels
Display aspect ratio        : 1.85:1
Frame rate                  : 23.976 (24000/1001) FPS
Color space                 : YUV
Chroma subsampling          : 4:2:0
Bit depth                   : 8 bits
Scan type                   : Progressive
Compression mode            : Lossy
Bits/(Pixel*Frame)          : 0.324
Stream size                 : 1.32 GiB (91%)
Writing library             : 67

Audio
ID                          : 1
Format                      : AC-3
Format/Info                 : Audio Coding 3
Codec ID                    : 2000
Duration                    : 1 h 30 min
Bit rate mode               : Constant
Bit rate                    : 192 kb/s
Channel(s)                  : 2 channels
Channel positions           : Front: L R
Sampling rate               : 48.0 kHz
Frame rate                  : 31.250 FPS (1536 SPF)
Bit depth                   : 16 bits
Compression mode            : Lossy
Stream size                 : 124 MiB (8%)
Alignment                   : Split accross interleaves
Interleave, duration        : 42  ms (1.00 video frame)
Interleave, preload duratio : 500  ms
Title                       : UKR MVO [Novyj] 16.07.2018
Service kind                : Complete Main

Ще трохи скріншотів:



Джерело:
Подяка за українську доріжку: Krigg070, Bohdan237, drop_plz.


Срібний реліз (на рейтинг впливає 50% завантаженого)
 Трекер:    Зареєстрований   

Завантажити / скачати фільм українською



відео для новачків



 Зареєстрований:   2018-07-23 08:04
 Розмір:   1.45 GB 
 Оцінка фільму:   8.8/10 (Голосів: 19)
   
Інші релізи
v700a 
Новенький


З нами з: 28.02.11
Востаннє: 23.03.19
Повідомлень: 7

2018-07-23 19:59  
Дуже дякую! Давно чекав цей фільм українською!
S3M4RiL 
VIP


З нами з: 25.09.16
Востаннє: 08.12.19
Повідомлень: 250

2018-07-24 11:33  
Ех були в сендлера хоч і простуваті, але веселі фільми. Останнє десятиріччя, після чудових "керування гнівом" і "клік", він скотився в повний шлак.
kosturs 
Новенький


З нами з: 31.03.15
Востаннє: 06.12.19
Повідомлень: 12

2018-07-24 15:31  
Так згоден, починав дуже цікаво. А зараз...
Fizik419 
Новенький


З нами з: 13.05.15
Востаннє: 03.12.19
Повідомлень: 15

2018-07-25 23:05  
Без коментарів... Це треба бачити
Ваш часовий пояс: GMT + 2 Години

Нова тема   Відповісти