Вердикт за гроші / Runaway Jury (2003) 1080p [Open Matte] Ukr/Eng | Sub Eng

Нові коментарі

Нова тема   Відповісти
Останній раз роздавалося toxa-zet (2020-09-21)
Автор Повідомлення
kryk-v.ya. 
Попереджень: 1
Попереджень: 1 


З нами з: 14.02.14
Востаннє: 25.09.20
Повідомлень: 2243

2018-07-22 21:17  
Вердикт за гроші / Runaway Jury (2003) 1080p [Open Matte] Ukr/Eng | Sub Eng

Вердикт за гроші / Runaway Jury (2003) 1080p [Open Matte] Ukr/Eng | Sub Eng


Жанр: драма, трилер
Країна: США



Кінокомпанія: 20 Century Fox, Epsilon Motion Pictures, New Regency Pictures, Regency Enterprises
Режисер: Гарі Фледер
Актори: Джон К'юсак, Джин Гекмен, Дастін Гоффман, Рейчел Вайс, Брюс Девісон, Брюс МакГілл, Джеремі Півен, Нік Сірсі, Стенлі Андерсон, Кліфф Кертіс

Сюжет:
Один з присяжних під час процесу над виробником зброї об'єднує зусилля з чарівною дівчиною, щоб одержати контроль над всіма присяжними. Ставки дуже високі, оскільки процес "тягне" на кілька мільйонів доларів, тому адвокат стикається з протидією присяжного, який не зупиниться ні перед чим, щоб рішення присяжних залишилося в силі...


Тривалість: 02:07:39
Якість: 1080p [Open Matte] Amazon
Відео:
кодек:
розмір кадру: 1920 x 1080p
бітрейт: 11,4 Мб/с

Аудіо # 1:
мова: українська
переклад: двоголосий закадровий
кодек: 2.0
бітрейт: 192 кб/с

Ролі озвучили: Олег Лепенець і Лідія Муращенко

Аудіо # 2:
мова: англійська
переклад: оригінал
кодек: E- 5.1 Amazon
бітрейт: 640 кб/с

Аудіо # 3:
мова: англійська
переклад: оригінал
кодек: 5.1 Blu-Ray
бітрейт: 1509 кб/с

Субтитри:
мова: англійська (повні-Blu-Ray)
тип: програмні (м'які)
формат: *.srt

Субтитри:
мова: англійська (повні Amazon)
тип: програмні (м'які)
формат: *.srt

Субтитри:
мова: англійська -(повні-SDH-Amazon)
тип: програмні (м'які)
формат: *.srt
Info
General
Unique ID : 185080896984559700639655444808125579295 (0x8B3D48BEF31FE7E5A9C94D9E6D4F001F)
Complete name : D:\Runaway Jury (2003) 1080p [Open Matte].
Format :
Format version : Version 4 / Version 2
File size : 12.3 GiB
Duration : 2 h 7 min
Overall bit rate mode : Variable
Overall bit rate : 13.8 Mb/s
Encoded date : UTC 2018-07-22 16:36:16
Writing application : v14.0.0 ('Flow') 64bit
Writing library : libebml v1.3.4 + v1.4.5
Cover : Yes
Attachments : Cover.jpg

Video
ID : 1
Format : AVC
Format/Info : Advanced Video Codec
Format profile : [email protected]
Format settings : CABAC / 4 Ref Frames
Format settings, CABAC : Yes
Format settings, ReFrames : 4 frames
Codec ID : V_MPEG4/ISO/AVC
Duration : 2 h 7 min
Bit rate mode : Variable
Bit rate : 11.4 Mb/s
Maximum bit rate : 15.0 Mb/s
Width : 1 920 pixels
Height : 1 080 pixels
Display aspect ratio : 16:9
Frame rate mode : Constant
Frame rate : 23.976 (24000/1001) FPS
Color space : YUV
Chroma subsampling : 4:2:0
Bit depth : 8 bits
Scan type : Progressive
Bits/(Pixel*Frame) : 0.230
Stream size : 10.2 GiB (83%)
Default : Yes
Forced : No
Color range : Limited
Color primaries : BT.709
Transfer characteristics : BT.709
Matrix coefficients : BT.709

Audio #1
ID : 2
Format : AC-3
Format/Info : Audio Coding 3
Codec ID : A_AC3
Duration : 2 h 7 min
Bit rate mode : Constant
Bit rate : 192 kb/s
Channel(s) : 2 channels
Channel positions : Front: L R
Sampling rate : 48.0 kHz
Frame rate : 31.250 FPS (1536 SPF)
Bit depth : 16 bits
Compression mode : Lossy
Delay relative to video : 7 s 200 ms
Stream size : 175 MiB (1%)
Title : Двоголосий закадровий-2+2
Language : Ukrainian
Service kind : Complete Main
Default : No
Forced : No

Audio #2
ID : 3
Format : E-AC-3
Format/Info : Enhanced Audio Coding 3
Codec ID : A_EAC3
Duration : 2 h 7 min
Bit rate mode : Constant
Bit rate : 640 kb/s
Channel(s) : 6 channels
Channel positions : Front: L C R, Side: L R, LFE
Sampling rate : 48.0 kHz
Frame rate : 187.500 FPS (256 SPF)
Compression mode : Lossy
Stream size : 584 MiB (5%)
Title : English - Amazon
Language : English
Service kind : Complete Main
Default : No
Forced : No

Audio #3
ID : 4
Format :
Format/Info : Digital Theater Systems
Codec ID : A_DTS
Duration : 2 h 7 min
Bit rate mode : Constant
Bit rate : 1 509 kb/s
Channel(s) : 6 channels
Channel positions : Front: L C R, Side: L R, LFE
Sampling rate : 48.0 kHz
Frame rate : 93.750 FPS (512 SPF)
Bit depth : 16 bits
Compression mode : Lossy
Delay relative to video : 7 s 200 ms
Stream size : 1.34 GiB (11%)
Title : English - Blu-ray CEE
Language : English
Default : No
Forced : No

Text #1
ID : 5
Format : UTF-8
Codec ID : S_TEXT/UTF8
Codec ID/Info : UTF-8 Plain Text
Duration : 2 h 1 min
Bit rate : 84 b/s
Count of elements : 1691
Stream size : 75.2 KiB (0%)
Title : English Full - Blu-ray CEE
Language : English
Default : No
Forced : No

Text #2
ID : 6
Format : UTF-8
Codec ID : S_TEXT/UTF8
Codec ID/Info : UTF-8 Plain Text
Duration : 2 h 6 min
Bit rate : 88 b/s
Count of elements : 1882
Stream size : 81.8 KiB (0%)
Title : English Full - Amazon
Language : English
Default : No
Forced : No

Text #3
ID : 7
Format : UTF-8
Codec ID : S_TEXT/UTF8
Codec ID/Info : UTF-8 Plain Text
Duration : 2 h 7 min
Bit rate : 92 b/s
Count of elements : 1986
Stream size : 86.3 KiB (0%)
Title : English Full SDH - Amazon
Language : English
Default : No
Forced : No
Скріншоти



Джерело: &
Подяка п.kicyunya за запис з ТБ та вихідну українську доріжку.

Особиста оцінка: 10 - без зайвих вагань рекомендую всім!


Срібний реліз (на рейтинг впливає 50% завантаженого)
 Трекер:    Зареєстрований   

Завантажити / скачати фільм українською



відео для новачків



 Зареєстрований:   2018-07-22 21:17
 Розмір:   12.29 GB 
 Оцінка фільму:   9.7/10 (Голосів: 7)
   
Інші релізи
lightinsight 
Свій


З нами з: 07.04.14
Востаннє: 24.09.20
Повідомлень: 128

2018-07-23 02:04  
Дякую.
Ваш часовий пояс: GMT + 2 Години

Нова тема   Відповісти