Пташині пригоди / PLOEY - You Never Fly Alone (2018) 1080p

Нові коментарі

Нова тема   Відповісти
Автор Повідомлення
staf777 
Відео Гуртом - підтримка та поширення
Відео Гуртом - підтримка та поширення


З нами з: 16.11.16
Востаннє: 28.02.20
Повідомлень: 3541

2018-07-22 20:08  
Пташині пригоди / PLOEY - You Never Fly Alone (2018) 1080p

Пташині пригоди / PLOEY - You Never Fly Alone (2018) 1080p


Жанр: анімаційний, пригодницький, сімейний
Країна: Ісландія, Бельгія



Кінокомпанія: GunHil, Cyborn
Режисер: Аудні Аусгейрссон
Актори: Джемі Орам, Харріет Перрінг, Іен Стюарт Робертсон, Річард Уіллс-Коттон, Торунн Ерна Клаузен, Деббі Чейзен

Сюжет:
Мале пташеня ще не встигло навчитися літати, аж вже прийшов час міграції. Йому доведеться пережити арктичну зиму, перемогти лютих ворогів і стати сильним, щоб возз'єднатися зі своєю сім'єю, коли прийде весна.


Тривалість: 01:22:29
Якість: 1080p
Відео:
кодек:
розмір кадру: 1920x804
бітрейт: 4524 кб/с
бітрейт: присутня заставка 3 сек. з чотирма словами російською на початку, див. скріншот. Назва теж російською.
Зразок:

Аудіо:
мова: українська
переклад: професійний дубльований
кодек: 2.0
бітрейт: 192 кб/с

оригінальна доріжка була відсутня на момент створення релізу
Info
General
Unique ID : 192723689697490437966794028174729597089 (0x90FD3B84FF29C4F3F63D2277BCE0D0A1)
Complete name : D:\Мультфільми в HD\PLOEY - You Never Fly Alone (2018) 1080p [UKR] [Hurtom].
Format :
Format version : Version 4 / Version 2
File size : 2.72 GiB
Duration : 1 h 22 min
Overall bit rate : 4 718 kb/s
Movie name : PLOEY - You Never Fly Alone (2018) 1080p [UKR] [Hurtom]
Encoded date : UTC 2018-07-22 17:35:01
Writing application : v24.0.0 ('Beyond The Pale') 64-bit
Writing library : libebml v1.3.6 + v1.4.9
Cover : Yes
Attachments : cover.jpg

Video
ID : 1
Format : AVC
Format/Info : Advanced Video Codec
Format profile : [email protected]
Format settings : CABAC / 5 Ref Frames
Format settings, CABAC : Yes
Format settings, ReFrames : 5 frames
Codec ID : V_MPEG4/ISO/AVC
Duration : 1 h 22 min
Bit rate : 4 524 kb/s
Width : 1 920 pixels
Height : 804 pixels
Display aspect ratio : 2.40:1
Frame rate mode : Constant
Frame rate : 24.000 FPS
Color space : YUV
Chroma subsampling : 4:2:0
Bit depth : 8 bits
Scan type : Progressive
Bits/(Pixel*Frame) : 0.122
Stream size : 2.61 GiB (96%)
Language : English
Default : Yes
Forced : No
Color range : Limited
Color primaries : BT.709
Transfer characteristics : BT.709
Matrix coefficients : BT.709

Audio
ID : 2
Format : AC-3
Format/Info : Audio Coding 3
Codec ID : A_AC3
Duration : 1 h 22 min
Bit rate mode : Constant
Bit rate : 192 kb/s
Channel(s) : 2 channels
Channel positions : Front: L R
Sampling rate : 48.0 kHz
Frame rate : 31.250 FPS (1536 SPF)
Bit depth : 16 bits
Compression mode : Lossy
Delay relative to video : -42 ms
Stream size : 113 MiB (4%)
Language : Ukrainian
Service kind : Complete Main
Default : Yes
Forced : Yes

Menu
00:00:00.000 : en:Глава 1
00:05:37.666 : en:Глава 2
00:11:16.374 : en:Глава 3
00:17:59.457 : en:Глава 4
00:23:10.623 : en:Глава 5
00:28:29.248 : en:Глава 6
00:35:23.998 : en:Глава 7
00:41:04.039 : en:Глава 8
00:47:12.330 : en:Глава 9
00:54:50.705 : en:Глава 10
01:00:24.288 : en:Глава 11
01:05:02.246 : en:Глава 12
01:09:39.662 : en:Глава 13
01:14:56.578 : en:Глава 14
Скріншоти



Підтримати купівлю інших фільмів можна тут.

Подяка пану AngryBirdsUA за доріжку та пану Hanway за синхронізацію.
За допомогу в створені реліза дякую пану 11FrYkT
Джерело: &
Особиста оцінка: 0 - не дивився


 Трекер:    Зареєстрований   

Завантажити / скачати мультфільм українською



відео для новачків



 Зареєстрований:   2018-07-22 20:08
 Розмір:   2.72 GB 
 Оцінка мультфільму:   8.8/10 (Голосів: 20)
   
Інші релізи
igor911 
Модератор відео


З нами з: 18.01.08
Востаннє: 28.02.20
Повідомлень: 14123

2018-07-22 20:33  
staf777 написано:
Присутня російська вставка

у відео? вкажи її тривалість, додай скріншот(-и).

-_-В_E_N_D_Е_R-_- 
Забанено
Забанено


З нами з: 11.07.18
Востаннє: 23.08.18
Повідомлень: 528

2018-07-22 20:38  
А що це власне твориться? де оригінальний звук?
staf777 
Відео Гуртом - підтримка та поширення
Відео Гуртом - підтримка та поширення


З нами з: 16.11.16
Востаннє: 28.02.20
Повідомлень: 3541

2018-07-22 20:41  
igor911
З самого початку триває три секунди

Electroz 
Відео Гуртом - підтримка та поширення
Відео Гуртом - підтримка та поширення


З нами з: 18.09.14
Востаннє: 28.02.20
Повідомлень: 3774

2018-07-22 21:00  
staf777
Чому не вирізав?

igor911 
Модератор відео


З нами з: 18.01.08
Востаннє: 28.02.20
Повідомлень: 14123

2018-07-22 21:06  
Мабуть це (рос.тюнс) єдине якісне джерело відео у відкритому доступі на момент створення релізів, тому і немає ориг.звуку і є рос.вставка.
ntrader 
Свій


З нами з: 31.05.16
Востаннє: 26.02.20
Повідомлень: 71

2018-07-26 10:20  
Дитині мульфільм сподобався
Ваш часовий пояс: GMT + 2 Години

Нова тема   Відповісти