Ті, що падають вгору - Відеографія (2010-2018) 720p та 1080p Український Поп-Рок

Нові коментарі

Нова тема   Відповісти
Останній раз роздавалося vasily.mizyuk (2019-09-07)
Автор Повідомлення
vasily.mizyuk 
Новенький


З нами з: 31.05.16
Востаннє: 06.09.19
Повідомлень: 3

2018-07-22 20:41  
Ті, що падають вгору - Збірка музичних відео (2010-2018) 720p та 1080p Український Поп-Рок

Ті, що падають вгору - Відеографія (2010-2018) 720p та 1080p Український Поп-Рок


Стиль: Alternative Pop Rock
Країна, місто: Україна, Тернопіль
Сайти: Офіційний сайт
Виконавці: Ті, що падають вгору

Ті, що падають вгору - Дивне місто (, 1280х720) - 4:15
Ті, що падають вгору - Обман (, 1280х720) - 3:03
Ті, що падають вгору - Саме зараз (, 1280х720) - 5:34
Ті, що падають вгору - Люблю (, 1280х720) - 3:41
Ті, що падають вгору - Душа в душу (, 1280х720) - 3:36
Ті, що падають вгору - Ніченька (HEVC, 1920х1080) - 3:16
Ті, що падають вгору - Радій мною (, 1920х1080) - 4:15
Тривалість:
00:27:40
Якість:

Відео:
кодек: та HEVC
розмір кадру: 1920 х 1080 та 1280 x 720
бітрейт: 7-32 Mб/с

Аудіо:
мова: українська
бітрейт: 2.0
бітрейт: 192-320кб/с
скріншоти:





















[/url]
Info:
General
Complete name : /Users/vasilymizyuk/Movies/Ті, що падають вгору - Збірка музичних відео (2010-2018) HD/Ті, що падають вгору - Радій мною.mp4
Format : MPEG-4
Format profile : Base Media / Version 2
Codec ID : mp42
File size : 505 MiB
Duration : 4mn 15s
Overall bit rate mode : Variable
Overall bit rate : 16.6 Mbps
Encoded date : UTC 2018-04-22 21:27:28
Tagged date : UTC 2018-04-22 21:27:43
©TIM : 00:00:00:00
©TSC : 30000
©TSZ : 1001

Video
ID : 1
Format : AVC
Format/Info : Advanced Video Codec
Format profile : [email protected]
Format settings, CABAC : Yes
Format settings, ReFrames : 3 frames
Codec ID : avc1
Codec ID/Info : Advanced Video Coding
Duration : 4mn 15s
Bit rate mode : Variable
Bit rate : 16.3 Mbps
Maximum bit rate : 20.0 Mbps
Width : 1 920 pixels
Height : 1 080 pixels
Display aspect ratio : 16:9
Frame rate mode : Constant
Frame rate : 29.970 fps
Standard : NTSC
Color space : YUV
Chroma subsampling : 4:2:0
Bit depth : 8 bits
Scan type : Progressive
Bits/(Pixel*Frame) : 0.262
Stream size : 495 MiB (98%)
Language : English
Encoded date : UTC 2018-04-22 21:27:28
Tagged date : UTC 2018-04-22 21:27:28
Color primaries : BT.709
Transfer characteristics : BT.709
Matrix coefficients : BT.709

Audio
ID : 2
Format :
Format/Info : Advanced Audio Codec
Format profile : LC
Codec ID : 40
Duration : 4mn 15s
Source duration : 4mn 15s
Bit rate mode : Variable
Bit rate : 317 Kbps
Maximum bit rate : 456 Kbps
Channel(s) : 2 channels
Channel positions : Front: L R
Sampling rate : 48.0 KHz
Compression mode : Lossy
Stream size : 9.66 MiB (2%)
Source stream size : 9.66 MiB (2%)
Language : English
Encoded date : UTC 2018-04-22 21:27:28
Tagged date : UTC 2018-04-22 21:27:28

General
Complete name : /Users/vasilymizyuk/Movies/Ті, що падають вгору - Збірка музичних відео (2010-2018) HD/Ті, що падають вгору - Ніченька.mp4
Format : MPEG-4
Format profile : Base Media / Version 2
Codec ID : mp42
File size : 384 MiB
Duration : 3mn 16s
Overall bit rate mode : Variable
Overall bit rate : 16.4 Mbps
Encoded date : UTC 2017-12-17 05:54:54
Tagged date : UTC 2017-12-17 05:55:02
©TIM : 00:00:00:00
©TSC : 25
©TSZ : 1

Video
ID : 1
Format : HEVC
Format/Info : High Efficiency Video Coding
Format profile : [email protected]
Codec ID : hvc1
Codec ID/Info : High Efficiency Video Coding
Duration : 3mn 16s
Bit rate : 16.2 Mbps
Width : 1 920 pixels
Height : 1 080 pixels
Display aspect ratio : 16:9
Frame rate mode : Constant
Frame rate : 25.000 fps
Color space : YUV
Chroma subsampling : 4:2:0
Bit depth : 8 bits
Bits/(Pixel*Frame) : 0.313
Stream size : 380 MiB (99%)
Language : English
Encoded date : UTC 2017-12-17 05:54:54
Tagged date : UTC 2017-12-17 05:54:54

Audio
ID : 2
Format :
Format/Info : Advanced Audio Codec
Format profile : LC
Codec ID : 40
Duration : 3mn 16s
Source duration : 3mn 16s
Bit rate mode : Variable
Bit rate : 192 Kbps
Maximum bit rate : 278 Kbps
Channel(s) : 2 channels
Channel positions : Front: L R
Sampling rate : 48.0 KHz
Compression mode : Lossy
Stream size : 4.43 MiB (1%)
Source stream size : 4.43 MiB (1%)
Language : English
Encoded date : UTC 2017-12-17 05:54:54
Tagged date : UTC 2017-12-17 05:54:54

General
Complete name : /Users/vasilymizyuk/Movies/Ті, що падають вгору - Збірка музичних відео (2010-2018) HD/Ті, що падають вгору - Душа в душу.mp4
Format : MPEG-4
Format profile : Base Media / Version 2
Codec ID : mp42
File size : 266 MiB
Duration : 3mn 36s
Overall bit rate mode : Variable
Overall bit rate : 10.3 Mbps
Encoded date : UTC 2017-02-11 18:11:21
Tagged date : UTC 2017-02-11 18:11:34
©TIM : 00;00;00;00
©TSC : 30000
©TSZ : 1001

Video
ID : 1
Format : AVC
Format/Info : Advanced Video Codec
Format profile : [email protected]
Format settings, CABAC : Yes
Format settings, ReFrames : 3 frames
Codec ID : avc1
Codec ID/Info : Advanced Video Coding
Duration : 3mn 36s
Bit rate : 9 977 Kbps
Width : 1 280 pixels
Height : 720 pixels
Display aspect ratio : 16:9
Frame rate mode : Variable
Frame rate : 29.970 fps
Minimum frame rate : 29.970 fps
Maximum frame rate : 30.000 fps
Standard : NTSC
Color space : YUV
Chroma subsampling : 4:2:0
Bit depth : 8 bits
Scan type : Progressive
Bits/(Pixel*Frame) : 0.361
Stream size : 257 MiB (97%)
Language : English
Encoded date : UTC 2017-02-11 18:11:21
Tagged date : UTC 2017-02-11 18:11:21
Color primaries : BT.709
Transfer characteristics : BT.709
Matrix coefficients : BT.709

Audio
ID : 2
Format :
Format/Info : Advanced Audio Codec
Format profile : LC
Codec ID : 40
Duration : 3mn 36s
Source duration : 3mn 36s
Bit rate mode : Variable
Bit rate : 317 Kbps
Maximum bit rate : 457 Kbps
Channel(s) : 2 channels
Channel positions : Front: L R
Sampling rate : 48.0 KHz
Compression mode : Lossy
Stream size : 8.19 MiB (3%)
Source stream size : 8.19 MiB (3%)
Language : English
Encoded date : UTC 2017-02-11 18:11:21
Tagged date : UTC 2017-02-11 18:11:21

General
Complete name : /Users/vasilymizyuk/Movies/Ті, що падають вгору - Збірка музичних відео (2010-2018) HD/Ті, що падають вгору - Дивне місто.mov
Format : MPEG-4
Format profile : QuickTime
Codec ID : qt
File size : 272 MiB
Duration : 4mn 15s
Overall bit rate : 8 928 Kbps
Encoded date : UTC 2010-10-03 17:29:59
Tagged date : UTC 2010-10-03 17:30:08
Writing library : Apple QuickTime

Video
ID : 1
Format : AVC
Format/Info : Advanced Video Codec
Format profile : [email protected]
Format settings, CABAC : No
Format settings, ReFrames : 2 frames
Codec ID : avc1
Codec ID/Info : Advanced Video Coding
Duration : 4mn 15s
Source duration : 4mn 15s
Bit rate : 8 799 Kbps
Width : 1 280 pixels
Height : 720 pixels
Display aspect ratio : 16:9
Frame rate mode : Constant
Frame rate : 25.000 fps
Color space : YUV
Chroma subsampling : 4:2:0
Bit depth : 8 bits
Scan type : Progressive
Bits/(Pixel*Frame) : 0.382
Stream size : 268 MiB (99%)
Source stream size : 268 MiB (99%)
Language : English
Encoded date : UTC 2010-10-03 17:12:16
Tagged date : UTC 2010-10-03 17:30:08
Color primaries : BT.709
Transfer characteristics : BT.709
Matrix coefficients : BT.709

Audio
ID : 2
Format :
Format/Info : Advanced Audio Codec
Format profile : LC
Codec ID : 40
Duration : 4mn 15s
Source duration : 4mn 15s
Bit rate mode : Constant
Bit rate : 128 Kbps
Channel(s) : 2 channels
Channel positions : Front: L R
Sampling rate : 44.1 KHz
Compression mode : Lossy
Stream size : 3.79 MiB (1%)
Source stream size : 3.79 MiB (1%)
Language : English
Encoded date : UTC 2010-10-03 17:12:17
Tagged date : UTC 2010-10-03 17:30:08

General
Complete name : /Users/vasilymizyuk/Movies/Ті, що падають вгору - Збірка музичних відео (2010-2018) HD/Ті, що падають вгору - Люблю.mp4
Format : MPEG-4
Format profile : Base Media / Version 2
Codec ID : mp42
File size : 296 MiB
Duration : 3mn 41s
Overall bit rate mode : Variable
Overall bit rate : 11.2 Mbps
Encoded date : UTC 2010-12-05 10:14:05
Tagged date : UTC 2010-12-05 10:14:05

Video
ID : 1
Format : AVC
Format/Info : Advanced Video Codec
Format profile : [email protected]
Format settings, CABAC : Yes
Format settings, ReFrames : 4 frames
Codec ID : avc1
Codec ID/Info : Advanced Video Coding
Duration : 3mn 41s
Bit rate mode : Variable
Bit rate : 11.0 Mbps
Maximum bit rate : 20.0 Mbps
Width : 1 280 pixels
Height : 720 pixels
Display aspect ratio : 16:9
Frame rate mode : Constant
Frame rate : 23.976 fps
Standard : NTSC
Color space : YUV
Chroma subsampling : 4:2:0
Bit depth : 8 bits
Scan type : Progressive
Bits/(Pixel*Frame) : 0.499
Stream size : 291 MiB (98%)
Language : English
Encoded date : UTC 2010-12-05 10:14:05
Tagged date : UTC 2010-12-05 10:14:05

Audio
ID : 2
Format :
Format/Info : Advanced Audio Codec
Format profile : LC
Codec ID : 40
Duration : 3mn 41s
Source duration : 3mn 41s
Bit rate mode : Variable
Bit rate : 192 Kbps
Maximum bit rate : 287 Kbps
Channel(s) : 2 channels
Channel positions : Front: L R
Sampling rate : 48.0 KHz
Compression mode : Lossy
Stream size : 5.00 MiB (2%)
Source stream size : 5.00 MiB (2%)
Language : English
Encoded date : UTC 2010-12-05 10:14:05
Tagged date : UTC 2010-12-05 10:14:05

General
Complete name : /Users/vasilymizyuk/Movies/Ті, що падають вгору - Збірка музичних відео (2010-2018) HD/Ті, що падають вгору - Обман.mp4
Format : MPEG-4
Format profile : Base Media / Version 2
Codec ID : mp42
File size : 272 MiB
Duration : 3mn 2s
Overall bit rate mode : Variable
Overall bit rate : 12.5 Mbps
Encoded date : UTC 2011-02-16 18:29:48
Tagged date : UTC 2011-02-16 18:29:48

Video
ID : 1
Format : AVC
Format/Info : Advanced Video Codec
Format profile : [email protected]
Format settings, CABAC : Yes
Format settings, ReFrames : 4 frames
Codec ID : avc1
Codec ID/Info : Advanced Video Coding
Duration : 3mn 2s
Bit rate mode : Variable
Bit rate : 12.3 Mbps
Maximum bit rate : 16.4 Mbps
Width : 1 280 pixels
Height : 720 pixels
Display aspect ratio : 16:9
Frame rate mode : Constant
Frame rate : 23.976 fps
Standard : NTSC
Color space : YUV
Chroma subsampling : 4:2:0
Bit depth : 8 bits
Scan type : Progressive
Bits/(Pixel*Frame) : 0.556
Stream size : 268 MiB (98%)
Language : English
Encoded date : UTC 2011-02-16 18:29:48
Tagged date : UTC 2011-02-16 18:29:48
Color primaries : BT.709
Transfer characteristics : BT.709
Matrix coefficients : BT.709

Audio
ID : 2
Format :
Format/Info : Advanced Audio Codec
Format profile : LC
Codec ID : 40
Duration : 3mn 2s
Source duration : 3mn 3s
Bit rate mode : Variable
Bit rate : 192 Kbps
Maximum bit rate : 287 Kbps
Channel(s) : 2 channels
Channel positions : Front: L R
Sampling rate : 48.0 KHz
Compression mode : Lossy
Stream size : 4.13 MiB (2%)
Source stream size : 4.13 MiB (2%)
Language : English
Encoded date : UTC 2011-02-16 18:29:48
Tagged date : UTC 2011-02-16 18:29:48

General
Complete name : /Users/vasilymizyuk/Movies/Ті, що падають вгору - Збірка музичних відео (2010-2018) HD/Ті, що падають вгору - Саме зараз.mp4
Format : MPEG-4
Format profile : Base Media / Version 2
Codec ID : mp42
File size : 247 MiB
Duration : 5mn 34s
Overall bit rate mode : Variable
Overall bit rate : 6 195 Kbps
Encoded date : UTC 2011-03-06 14:10:46
Tagged date : UTC 2011-03-06 14:10:46

Video
ID : 1
Format : AVC
Format/Info : Advanced Video Codec
Format profile : [email protected]
Format settings, CABAC : Yes
Format settings, ReFrames : 4 frames
Codec ID : avc1
Codec ID/Info : Advanced Video Coding
Duration : 5mn 34s
Bit rate mode : Variable
Bit rate : 5 998 Kbps
Maximum bit rate : 10 000 Kbps
Width : 1 280 pixels
Height : 720 pixels
Display aspect ratio : 16:9
Frame rate mode : Constant
Frame rate : 23.976 fps
Standard : NTSC
Color space : YUV
Chroma subsampling : 4:2:0
Bit depth : 8 bits
Scan type : Progressive
Bits/(Pixel*Frame) : 0.271
Stream size : 239 MiB (97%)
Language : English
Encoded date : UTC 2011-03-06 14:10:47
Tagged date : UTC 2011-03-06 14:10:47

Audio
ID : 2
Format :
Format/Info : Advanced Audio Codec
Format profile : LC
Codec ID : 40
Duration : 5mn 34s
Source duration : 5mn 34s
Bit rate mode : Variable
Bit rate : 192 Kbps
Maximum bit rate : 296 Kbps
Channel(s) : 2 channels
Channel positions : Front: L R
Sampling rate : 48.0 KHz
Compression mode : Lossy
Stream size : 7.55 MiB (3%)
Source stream size : 7.55 MiB (3%)
Language : English
Encoded date : UTC 2011-03-06 14:10:47
Tagged date : UTC 2011-03-06 14:10:47
Джерело: &
Особиста оцінка: 10 - без зайвих вагань рекомендую всім!


Золотий реліз (завантажене не впливає на рейтинг)
 Трекер:    Зареєстрований   

Завантажити / скачати кліп українською



відео для новачків



 Зареєстрований:   2018-07-25 22:53
 Розмір:   2.19 GB 
 Оцінка кліпу:   10/10 (Голосів: 7)
   
Форкуш 
VIP


З нами з: 03.02.10
Востаннє: 15.09.19
Повідомлень: 2471

2018-07-23 08:36  
Василю, додай список відео в описі і час в кінці кожного, а потім загальний час усіх разом.
Вкажи ширину-висоту кадру та бітрейди у віде та аудіо. Програма Info в поміч

bot 
робот


З нами з: 30.09.07
Востаннє: 26.05.05
Повідомлень: 22030

2018-07-26 12:45  
Тему перенесено з Неоформлене відео до форуму Музичне відео


11FrYkT

Ваш часовий пояс: GMT + 2 Години

Нова тема   Відповісти