Формула 1. Сезон 2018. Етап 11. Гран-Прі Німеччини. Гонка (22.07.2018) 1080p

Нові коментарі

Нова тема   Відповісти
Автор Повідомлення
sergiyko.5 
VIP


З нами з: 25.02.16
Востаннє: 26.10.20
Повідомлень: 3618

2018-07-22 18:30  
Формула 1. Сезон 2018. Етап 11. Гран-Прі Німеччини. Гонка (22.07.2018) 1080p


Формула 1. Сезон 2018. Етап 11. Гран-Прі Німеччини. Гонка (22.07.2018) 1080p

Жанр: Перегони Формули 1
Країна: Німеччина
Телеканал: Перший автомобільний
Коментатор: Максим Подзігун

Опис:
Гонка одинадцятого етапу Гран-Прі Німеччини 2018 року.


Тривалість: 01:58:18
Якість:

Відео: кодек: розмір кадру: 1920 х 1080 бітрейт: 7900 кб/с
Аудіо: мова: українська кодек: 2.0 бітрейт: 192 кб/с

Додаткова інформація: запис неповний, відсутній подіум по технічним причинам.
Про файл:

General
Unique ID : 66037902839318388095218943625558668252 (0x31AE6FFD00E8B5B4ABBF4D5BA1DEB3DC)
Complete name : D:\Torrents\SPORT\Formula 1\F1.2018.Race\F1.2018.11.Germany.Race.1080p..Ukr.
Format :
Format version : Version 4 / Version 2
File size : 6.72 GiB
Duration : 1 h 58 min
Overall bit rate : 8 137 kb/s
Encoded date : UTC 2018-07-22 16:25:45
Writing application : v24.0.0 ('Beyond The Pale') 64-bit
Writing library : libebml v1.3.6 + v1.4.9

Video
ID : 1
Format : AVC
Format/Info : Advanced Video Codec
Format profile : [email protected]
Format settings : CABAC / 4 Ref Frames
Format settings, CABAC : Yes
Format settings, ReFrames : 4 frames
Format settings, GOP : M=4, N=28
Codec ID : V_MPEG4/ISO/AVC
Duration : 1 h 58 min
Bit rate : 7 943 kb/s
Width : 1 920 pixels
Height : 1 080 pixels
Display aspect ratio : 16:9
Frame rate mode : Constant
Frame rate : 25.000 FPS
Color space : YUV
Chroma subsampling : 4:2:0
Bit depth : 8 bits
Scan type : Progressive
Bits/(Pixel*Frame) : 0.153
Stream size : 6.56 GiB (98%)
Language : English
Default : Yes
Forced : No

Audio
ID : 2
Format :
Format/Info : Advanced Audio Codec
Format profile : LC
Codec ID : A_AAC-2
Duration : 1 h 58 min
Bit rate : 192 kb/s
Channel(s) : 2 channels
Channel positions : Front: L R
Sampling rate : 44.1 kHz
Frame rate : 43.066 FPS (1024 SPF)
Compression mode : Lossy
Stream size : 162 MiB (2%)
Language : Ukrainian
Default : Yes
Forced : No
Скріншоти:


Автор запису: Callistus


 Трекер:    Зареєстрований   

Завантажити / скачати торрент



відео для новачків



 Зареєстрований:   2018-07-22 18:30
 Розмір:   6.72 GB 
 Оцінка:   9.6/10 (Голосів: 21)
   
legioneRRR 
Частий відвідувач


З нами з: 02.01.15
Востаннє: 26.10.20
Повідомлень: 33

2018-07-22 18:35  
я так розумію запис без подіуму?
Тригор 
Новенький


З нами з: 10.08.14
Востаннє: 23.09.20
Повідомлень: 3

2018-07-22 19:30  
7 Гіг? Качати повітря, емм дякую...
Arail 
Новенький


З нами з: 04.10.11
Востаннє: 18.10.20
Повідомлень: 13

2018-07-22 21:28  
Тригор

Цитата:
7 Гіг? Качати повітря, емм дякую...


От би завжди так , спочатку в такій якості а потім під ранок 720. Картинка помітно краще, а трафік то всеодно халявний, та й час закачки всеодно нікчемно малий.

Ваш часовий пояс: GMT + 2 Години

Нова тема   Відповісти