Людина, якої не було / The Man Who Wasn't There (2001) 720p Ukr/Eng | Sub Eng

Нові коментарі

Нова тема   Відповісти
Автор Повідомлення
Anonymous 







2018-07-22 19:14  
Людина, якої не було / The Man Who Wasn't There (2001) 720p Ukr/Eng | Sub Eng

Людина, якої не було / The Man Who Wasn't There (2001) 720p Ukr/Eng | Sub Eng


Жанр: драма, кримінальний
Країна: США, Велика Британія



Кінокомпанія: Good Machine, Gramercy Pictures (I), Mike Zoss Productions
Режисер: Джоел Коен / Joel Coen, Ітен Коен / Ethan Coen
Актори: Біллі Боб Торнтон, Скарлетт Йогансон, Френсіс Мак-Дорманд, Майкл Бадалукко, Джеймс Гандольфіні, Катрін Боровіц, Джон Політо, Річард Дженкінс, Тоні Шалуб та інші

Сюжет:
1949 рік, Санта-Роза, Каліфорнія. Мовчазний перукар Ед Крейн неквапливо стриже клієнтів у своєму салоні, у той час як його дружина крутить зі своїм босом, галантерейним Великим Дейвом, який нещодавно зібрав гроші на новий магазин.
Раптово Еду випадає можливість розбагатіти на швидкому рості галузі хімічного чищення одягу, і, щоб обзавестися капіталом, він шантажує Великого Дейва, розуміючи, що успіху в житті він може домогтися, лише пішовши на крайні заходи. Здається, що в хитрому задумі Еда немає вад, але незабаром він дізнається, що, прийнявши це фатальне рішення, він підписав свій смертний вирок ...


Тривалість: 01:56:05
Якість:
Відео:
кодек:
розмір кадру: 1232 х 668
бітрейт: 2464 кб/с

Аудіо # 1:
мова: українська
переклад: багатоголосий закадровий
кодек: 2.0 (stereo)
бітрейт: 192 кб/с

Аудіо # 2:
мова: англійська
переклад: оригінал
кодек: 5.1
бітрейт: 448 кб/с

Субтитри:
мова: англійська
тип: програмні (м'які)
формат: *.srt
Info
Video
ID : 1
Format : AVC
Format/Info : Advanced Video Codec
Format profile : [email protected]
Format settings : CABAC / 10 Ref Frames
Format settings, CABAC : Yes
Format settings, ReFrames : 10 frames
Codec ID : V_MPEG4/ISO/AVC
Duration : 1 h 56 min
Bit rate : 2 464 kb/s
Width : 1 232 pixels
Height : 668 pixels
Display aspect ratio : 1.85:1
Frame rate mode : Constant
Frame rate : 24.000 FPS
Color space : YUV
Chroma subsampling : 4:2:0
Bit depth : 8 bits
Scan type : Progressive
Bits/(Pixel*Frame) : 0.125
Stream size : 2.00 GiB (79%)
Title : 1232x668 (16:9); 2463 Kbps; 24 fps; 0,122 bpp
Writing library : core 114 r1913kMod 5fd3dce
Encoding settings : cabac=1 / ref=10 / deblock=1:-2:-1 / analyse=0x3:0x113 / me=umh / subme=10 / psy=1 / fade_compensate=0.00 / psy_rd=0.98:0.10 / mixed_ref=1 / me_range=32 / chroma_me=0 / trellis=2 / 8x8dct=1 / cqm=0 / deadzone=21,11 / fast_pskip=1 / chroma_qp_offset=9 / threads=6 / sliced_threads=0 / nr=0 / decimate=1 / interlaced=0 / constrained_intra=0 / bframes=9 / b_pyramid=2 / b_adapt=2 / b_bias=0 / direct=3 / weightb=1 / open_gop=0 / weightp=2 / keyint=250 / keyint_min=24 / scenecut=40 / intra_refresh=0 / rc=crf / mbtree=0 / crf=19.2000 / qcomp=0.70 / qpmin=0 / qpmax=69 / qpstep=4 / ip_ratio=1.40 / pb_ratio=1.30 / aq=2:1.00 / zones=159186,167175,q=35
Language : English
Default : Yes
Forced : No
Color range : Limited
Matrix coefficients : BT.709

Audio #1
ID : 2
Format : AC-3
Format/Info : Audio Coding 3
Codec ID : A_AC3
Duration : 1 h 56 min
Bit rate mode : Constant
Bit rate : 192 kb/s
Channel(s) : 2 channels
Channel positions : Front: L R
Sampling rate : 48.0 kHz
Frame rate : 31.250 FPS (1536 SPF)
Bit depth : 16 bits
Compression mode : Lossy
Stream size : 159 MiB (6%)
Title : Cine+ Legend
Language : Ukrainian
Service kind : Complete Main
Default : Yes
Forced : Yes

Audio #2
ID : 3
Format : AC-3
Format/Info : Audio Coding 3
Codec ID : A_AC3
Duration : 1 h 56 min
Bit rate mode : Constant
Bit rate : 448 kb/s
Channel(s) : 6 channels
Channel positions : Front: L C R, Side: L R, LFE
Sampling rate : 48.0 kHz
Frame rate : 31.250 FPS (1536 SPF)
Bit depth : 16 bits
Compression mode : Lossy
Stream size : 372 MiB (14%)
Title : Original
Language : English
Service kind : Complete Main
Default : No
Forced : No

Text
ID : 4
Format : UTF-8
Codec ID : S_TEXT/UTF8
Codec ID/Info : UTF-8 Plain Text
Duration : 1 h 48 min
Bit rate : 61 b/s
Count of elements : 1430
Stream size : 48.5 KiB (0%)
Language : English
Default : No
Forced : No

Menu
00:00:00.000 : en:Chapter 1
00:08:35.416 : en:Chapter 2
00:18:59.166 : en:Chapter 3
00:31:17.541 : en:Chapter 4
00:42:57.000 : en:Chapter 5
00:53:53.250 : en:Chapter 6
01:07:48.250 : en:Chapter 7
01:14:19.041 : en:Chapter 8
01:22:00.791 : en:Chapter 9
01:27:10.541 : en:Chapter 10
01:36:46.000 : en:Chapter 11
01:45:26.000 : en:Chapter 12
Скріншоти




Джерело:


Срібний реліз (на рейтинг впливає 50% завантаженого)
 Трекер:    Зареєстрований   

Завантажити / скачати фільм українською



відео для новачків



 Зареєстрований:   2018-07-22 21:07
 Розмір:   2.52 GB 
 Оцінка фільму:   9.1/10 (Голосів: 14)
   
bot 
робот


З нами з: 30.09.07
Востаннє: 26.05.05
Повідомлень: 25552

2018-07-22 21:07  
Тему перенесено з Анонси релізів до форуму Фільми


Sando7

bot 
робот


З нами з: 30.09.07
Востаннє: 26.05.05
Повідомлень: 25552

2018-07-23 11:27  
Тему перенесено з Фільми до форуму Фільми в HD


igor911

+380954897458 
VIP


З нами з: 02.06.17
Востаннє: 18.09.20
Повідомлень: 942

2018-07-24 00:13  
Абсолютно геніальне кіно! Найулюбленіший фільм Коенів.
ВАВУНЯ 
VIP


З нами з: 30.06.15
Востаннє: 21.09.20
Повідомлень: 297

2018-07-24 10:17  
чи передбачається поява 1080p чи Remux?
дякую.

Ваш часовий пояс: GMT + 2 Години

Нова тема   Відповісти