Божевільна / Unsane (2018) 1080p Ukr/Eng | Sub Ukr/Eng

Нові коментарі

Нова тема   Відповісти
Автор Повідомлення
staf777 
Відео Гуртом - підтримка та поширення
Відео Гуртом - підтримка та поширення


З нами з: 16.11.16
Востаннє: 12.11.19
Повідомлень: 3017

2018-07-22 15:35  
Божевільна / Unsane (2018) 1080p Ukr/Eng | Sub Ukr/Eng





Жанр: жахи, трилер
Країна: США



Кінокомпанія: Extension 765, New Regency Pictures, Regency Enterprises
Режисер: Стівен Содерберг
Актори: Клер Фой, Джошуа Леонард, Джей Феро, Джуно Темпл, Емі Ірвінг, Аймі Маллінз, Сара Стайлс, Зак Черрі, Марк Кадиш

Сюжет:
Молоду жінку без її згоди закривають в психіатричній лікарні, де вона стикається зі своїм найбільшим страхом. Але чи є те, що відбувається, реальністю, чи це все її галюцинація?


Тривалість: 01:38:11
Якість: 1080р

Відео:
кодек:
розмір кадру: 1688x1080
бітрейт: 15 Мб/с

Аудіо # 1:
мова: українська
переклад: професійний дубльований
кодек: 2.0
бітрейт: 192 кб/с

Аудіо # 2:
мова: англійська
переклад: оригінал
кодек: 5.1
бітрейт: 1509 кб/с

Субтитри (Forced, Full):
мова: українська
тип: програмні (м'які)
формат: *.srt

Субтитри:
мова: англійська
тип: програмні (м'які)
формат: *.srt
Info
General
Unique ID : 6188977187553215927718060323178728237 (0x4A7F4225854FBCD0C18804CD6DACB2D)
Complete name : D:\Майбутні релізи\Unsane (2018) 1080p [UKR_ENG] [Hurtom].
Format :
Format version : Version 4 / Version 2
File size : 11.5 GiB
Duration : 1 h 38 min
Overall bit rate : 16.7 Mb/s
Movie name : Unsane (2018) 1080p [UKR_ENG] [Hurtom]
Encoded date : UTC 2018-07-22 14:14:49
Writing application : v24.0.0 ('Beyond The Pale') 64-bit
Writing library : libebml v1.3.6 + v1.4.9
Cover : Yes
Attachments : cover.jpg

Video
ID : 1
Format : AVC
Format/Info : Advanced Video Codec
Format profile : [email protected]
Format settings : CABAC / 4 Ref Frames
Format settings, CABAC : Yes
Format settings, ReFrames : 4 frames
Codec ID : V_MPEG4/ISO/AVC
Duration : 1 h 38 min
Bit rate : 15.0 Mb/s
Width : 1 688 pixels
Height : 1 080 pixels
Display aspect ratio : 16:10
Frame rate mode : Constant
Frame rate : 23.976 (24000/1001) FPS
Color space : YUV
Chroma subsampling : 4:2:0
Bit depth : 8 bits
Scan type : Progressive
Bits/(Pixel*Frame) : 0.344
Stream size : 10.3 GiB (90%)
Writing library : core 142 r2431+42 c69a006 tMod [[email protected]:2:0 X86_64]
Encoding settings : cabac=1 / ref=4 / deblock=1:-3:-3 / analyse=0x3:0x113 / me=umh / subme=10 / psy=1 / fade_compensate=0.00 / psy_rd=1.00:0.05 / mixed_ref=1 / me_range=48 / chroma_me=1 / trellis=2 / 8x8dct=1 / cqm=0 / deadzone=21,11 / fast_pskip=0 / chroma_qp_offset=-2 / threads=48 / lookahead_threads=8 / sliced_threads=0 / nr=0 / decimate=1 / interlaced=0 / bluray_compat=0 / constrained_intra=0 / fgo=0 / bframes=8 / b_pyramid=2 / b_adapt=2 / b_bias=0 / direct=3 / weightb=1 / open_gop=0 / weightp=2 / keyint=250 / keyint_min=23 / scenecut=40 / intra_refresh=0 / rc_lookahead=40 / rc=crf / mbtree=0 / crf=17.6000 / qcomp=0.60 / qpmin=0:0:0 / qpmax=69:69:69 / qpstep=4 / vbv_maxrate=40000 / vbv_bufsize=30000 / crf_max=0.0 / nal_hrd=none / filler=0 / ip_ratio=1.40 / pb_ratio=1.30 / aq=3:0.80 / aq-sensitivity=10.00 / aq-factor=1.00:1.00:1.00 / aq2=0 / aq3=0
Language : English
Default : No
Forced : No
Color range : Limited
Matrix coefficients : BT.709

Audio #1
ID : 2
Format : AC-3
Format/Info : Audio Coding 3
Codec ID : A_AC3
Duration : 1 h 38 min
Bit rate mode : Constant
Bit rate : 192 kb/s
Channel(s) : 2 channels
Channel positions : Front: L R
Sampling rate : 48.0 kHz
Frame rate : 31.250 FPS (1536 SPF)
Bit depth : 16 bits
Compression mode : Lossy
Stream size : 135 MiB (1%)
Language : Ukrainian
Service kind : Complete Main
Default : Yes
Forced : Yes

Audio #2
ID : 3
Format :
Format/Info : Digital Theater Systems
Codec ID : A_DTS
Duration : 1 h 38 min
Bit rate mode : Constant
Bit rate : 1 509 kb/s
Channel(s) : 6 channels
Channel positions : Front: L C R, Side: L R, LFE
Sampling rate : 48.0 kHz
Frame rate : 93.750 FPS (512 SPF)
Bit depth : 24 bits
Compression mode : Lossy
Stream size : 1.03 GiB (9%)
Language : English
Default : No
Forced : No

Text #1
ID : 4
Format : UTF-8
Codec ID : S_TEXT/UTF8
Codec ID/Info : UTF-8 Plain Text
Duration : 1 h 33 min
Bit rate : 0 b/s
Count of elements : 4
Stream size : 188 Bytes (0%)
Language : Ukrainian
Default : Yes
Forced : Yes

Text #2
ID : 5
Format : UTF-8
Codec ID : S_TEXT/UTF8
Codec ID/Info : UTF-8 Plain Text
Duration : 1 h 36 min
Bit rate : 89 b/s
Count of elements : 1221
Stream size : 63.3 KiB (0%)
Language : Ukrainian
Default : No
Forced : No

Text #3
ID : 6
Format : UTF-8
Codec ID : S_TEXT/UTF8
Codec ID/Info : UTF-8 Plain Text
Duration : 1 h 35 min
Bit rate : 60 b/s
Count of elements : 1283
Stream size : 42.6 KiB (0%)
Language : English
Default : No
Forced : No

Menu
00:00:00.000 : en:00:00:00.000
00:05:40.257 : en:00:05:40.257
00:10:21.913 : en:00:10:21.913
00:14:24.697 : en:00:14:24.697
00:19:26.332 : en:00:19:26.332
00:24:46.235 : en:00:24:46.235
00:29:10.165 : en:00:29:10.165
00:36:35.402 : en:00:36:35.402
00:40:25.089 : en:00:40:25.089
00:45:23.596 : en:00:45:23.596
00:50:14.803 : en:00:50:14.803
00:56:12.286 : en:00:56:12.286
00:59:06.835 : en:00:59:06.835
01:04:44.464 : en:01:04:44.464
01:07:30.046 : en:01:07:30.046
01:15:37.450 : en:01:15:37.450
01:23:25.334 : en:01:23:25.334
01:26:39.653 : en:01:26:39.653
01:30:23.168 : en:01:30:23.168
01:35:08.411 : en:01:35:08.411
Скріншоти



За допомогу в створені реліза дякую пану 11FrYkT
Джерело: &
Особиста оцінка: 0 - не дивився


 Трекер:    Зареєстрований   

Завантажити / скачати фільм українською



відео для новачків



 Зареєстрований:   2018-07-22 16:40
 Розмір:   11.48 GB 
 Оцінка фільму:   9.1/10 (Голосів: 9)
   
Інші релізи
   Божевільна / Unsane (2018) 1080p H.265 Ukr/Eng | Sub Ukr/Eng -Star-Lord-  1 / 0   5.26 GB   2019-02-04 13:33 
   Божевільна / Unsane (2018) leicheman  3 / 0   1.45 GB   2018-08-02 20:57 
   Божевільна / Unsane (2018) Remux 1080p Ukr/Eng | Sub Ukr/Eng staf777  2 / 0   24.16 GB   2018-07-31 18:10 
   Божевільна / Unsane (2018) AVC Ukr/Eng | Sub Ukr/Eng 11FrYkT  7 / 0   2.05 GB   2018-07-30 21:33 
   Божевільна / Unsane (2018) 720p Ukr/Eng | Sub Ukr/Eng 11FrYkT  2 / 0   3.91 GB   2018-07-30 16:04 
   Божевільна / Unsane (2018) mini 1080p H.265 Ukr/Eng | Sub Ukr/Eng ukr_anonymous  3 / 0   3.5 GB   2018-07-24 14:23 
poolvetrum 
VIP


З нами з: 01.06.14
Востаннє: 12.11.19
Повідомлень: 279

2018-07-24 15:07  
Наявність Содерберґа дещо підняла планку очікування непоганого кіно. Зрештою фільм таким і виявився - непоганим, але не більше. Є певна інтрига, є напруга і хвилювання за героїню, проте це все нівелюється поведінковими кліше персонажів та їх відверто ідіотськими діями. Дуже потішили юридичні тонкощі у фільмі (невже це так?). Не зважаючи на певні мінуси, фільм до перегляду радив би. 6/10
hetzendorf 
Забанено
Забанено


З нами з: 23.07.15
Востаннє: 02.11.19
Повідомлень: 2572

2019-02-28 23:06  
poolvetrum написано:
їх відверто ідіотськими діями

Головна героїня — невротичка, що закономірно через таке жорстке переслідування, головний герой — психопат і маніяк. Тож що дивного в тому, що їхні дії ідіотські?
Нормальний такий ненудний трилер.
8/10

Ваш часовий пояс: GMT + 2 Години

Нова тема   Відповісти