Бокс | Олександр Усик - Мурат Гассієв (21.07.2018) 720p Ukr/Eng

Нові коментарі

Нова тема   Відповісти
Автор Повідомлення
sergiyko.5 
VIP


З нами з: 25.02.16
Востаннє: 27.01.20
Повідомлень: 2877

2018-07-22 09:57  
Бокс | Олександр Усик - Мурат Гассієв (21.07.2018) 720p Ukr/Eng


Бокс | Олександр Усик - Мурат Гассієв (21.07.2018) 720p Ukr/Eng

Вид спорту: Бокс
Країна: росія
Телеканал: Інтер
Коментатор: Володимир Кобельков та Вячеслав Поночовний

Опис:
Олександр Усик - Мурат Гассієв. У фіналі Всесвітньої боксерської суперсерії зійшлися український чемпіон світу WBC і WBO Олександр Усик і володар титулів WBA та IBF росіянин Мурат Гассієв.


Тривалість: 01:28:32
Якість:

Відео: кодек: MPEG-2 розмір кадру: 1280 x 720 бітрейт: 3000 кб/с
Аудіо 1: мова: українська, російська кодек: 2.0 бітрейт: 192 кб/с
Аудіо 2: мова: англійська кодек: 2.0 бітрейт: 192 кб/с
Про файл:
General
Unique ID : 203119630007740277482992123261677729132 (0x98CF6AF32312F1B5152B9293E31BF56C)
Complete name : D:\Torrents\SPORT\Boxing.2018.07.21.Oleksandr.Usyk.vs.Murat.Gassiev.720p..Ukr.Eng.
Format :
Format version : Version 4 / Version 2
File size : 2.10 GiB
Duration : 1 h 28 min
Overall bit rate : 3 403 kb/s
Encoded date : UTC 2018-07-22 07:46:26
Writing application : v24.0.0 ('Beyond The Pale') 64-bit
Writing library : libebml v1.3.6 + v1.4.9

Video
ID : 1
Format : AVC
Format/Info : Advanced Video Codec
Format profile : [email protected]
Format settings : CABAC / 5 Ref Frames
Format settings, CABAC : Yes
Format settings, ReFrames : 5 frames
Codec ID : V_MPEG4/ISO/AVC
Duration : 1 h 28 min
Bit rate : 3 016 kb/s
Width : 1 280 pixels
Height : 720 pixels
Display aspect ratio : 16:9
Frame rate mode : Constant
Frame rate : 50.000 FPS
Color space : YUV
Chroma subsampling : 4:2:0
Bit depth : 8 bits
Scan type : Progressive
Bits/(Pixel*Frame) : 0.065
Stream size : 1.86 GiB (89%)
Writing library : core 155 r2901 7d0ff22
Encoding settings : cabac=1 / ref=5 / deblock=1:0:0 / analyse=0x3:0x113 / me=hex / subme=8 / psy=1 / psy_rd=1.00:0.00 / mixed_ref=1 / me_range=16 / chroma_me=1 / trellis=2 / 8x8dct=1 / cqm=0 / deadzone=21,11 / fast_pskip=1 / chroma_qp_offset=-2 / threads=12 / lookahead_threads=2 / sliced_threads=0 / nr=0 / decimate=1 / interlaced=0 / bluray_compat=0 / constrained_intra=0 / bframes=3 / b_pyramid=2 / b_adapt=1 / b_bias=0 / direct=3 / weightb=1 / open_gop=0 / weightp=2 / keyint=250 / keyint_min=25 / scenecut=40 / intra_refresh=0 / rc_lookahead=50 / rc=crf / mbtree=1 / crf=23.0 / qcomp=0.60 / qpmin=0 / qpmax=69 / qpstep=4 / ip_ratio=1.40 / aq=1:1.00
Language : English
Default : Yes
Forced : No
Color range : Limited
Matrix coefficients : BT.709

Audio #1
ID : 2
Format : AC-3
Format/Info : Audio Coding 3
Codec ID : A_AC3
Duration : 1 h 28 min
Bit rate mode : Constant
Bit rate : 192 kb/s
Channel(s) : 2 channels
Channel positions : Front: L R
Sampling rate : 48.0 kHz
Frame rate : 31.250 FPS (1536 SPF)
Bit depth : 16 bits
Compression mode : Lossy
Delay relative to video : -20 ms
Stream size : 122 MiB (6%)
Title : Володимир Кобельков та Вячеслав Поночовний
Language : Ukrainian
Service kind : Complete Main
Default : Yes
Forced : Yes

Audio #2
ID : 3
Format : AC-3
Format/Info : Audio Coding 3
Codec ID : A_AC3
Duration : 1 h 28 min
Bit rate mode : Constant
Bit rate : 192 kb/s
Channel(s) : 2 channels
Channel positions : Front: L R
Sampling rate : 48.0 kHz
Frame rate : 31.250 FPS (1536 SPF)
Bit depth : 16 bits
Compression mode : Lossy
Delay relative to video : -20 ms
Stream size : 122 MiB (6%)
Language : English
Service kind : Complete Main
Default : No
Forced : No
Скріншоти:


Запис/синхронізація: sergiyko


Золотий реліз (завантажене не впливає на рейтинг)
 Трекер:    Зареєстрований   

Завантажити / скачати торрент



відео для новачків



 Зареєстрований:   2018-07-22 09:57
 Розмір:   2.1 GB 
 Оцінка:   7.2/10 (Голосів: 19)
   
-VuK- 
Новенький


З нами з: 14.05.16
Востаннє: 03.11.19
Повідомлень: 2

2018-07-22 13:02  
)))) респект за 2-разовий український гімн на початку )))))))))))))))
vovkulak88 
Новенький


З нами з: 08.09.09
Востаннє: 27.01.20
Повідомлень: 19

2018-07-22 13:19  
Вголосину з гімну московії)))
Sturm 
Забанено
Забанено


З нами з: 12.07.18
Востаннє: 27.07.18
Повідомлень: 30

2018-07-22 15:18  
В реалі московити умисно змінили наш славень

Співали "ще не вмерла УкраїнА"

та "запануєм і ми браття НА своїй сторонці"

мабуть цілий відділ гебістів працював над текстом

banderlog12345 
Частий відвідувач


З нами з: 14.03.13
Востаннє: 26.01.20
Повідомлень: 36

2018-07-22 16:32  
Сумно дивитись,як прогинається спорт та попса України.
groza 
Новенький


З нами з: 06.09.08
Востаннє: 22.01.20
Повідомлень: 1

2018-07-22 20:31  
Sturm
Можна їм гімн радянського союзу, або ще якось протролити.

postuluy 
Новенький


З нами з: 13.01.13
Востаннє: 25.01.20
Повідомлень: 15

2018-07-24 11:54  
дякую за 50fps, напевно варто вказати в характеристиках відео
sergiyko.5 
VIP


З нами з: 25.02.16
Востаннє: 27.01.20
Повідомлень: 2877

2018-07-24 12:13  
postuluy написано:
дякую за 50fps, напевно варто вказати в характеристиках відео


В перший день два можливо це і цікавило б когось, далі будуть вантажити одиниці, а для них головне щоб хоч якесь відео подивитись. Тому прохання, залишайтесь на роздачі якомого довше.

-_-В_E_N_D_Е_R-_- 
Забанено
Забанено


З нами з: 11.07.18
Востаннє: 23.08.18
Повідомлень: 528

2018-07-25 22:55  
За що тут золото?
Цитата:
Золото - українське, непрофесійна озвучка та Remux
Срібло - все до 2005
Бронза - ...логії та релізи з декількома сезонами (випусками у випадку документальних) від 2005 до сьогодні

удь-який метал не може отримати реліз, якщо в ньому окрім української, оригінальної звукової доріжки і коментарів (оригінальних) присутня інша звукова доріжка.

Воно далеко не українське, і здається що англійська тут не оригінальна доріжка

Додано через 2 хвилини 21 секунду:

sergiyko.5 написано:
Вашу оцінку 1 зараховано

Wide grin Wide grin Wide grin Wide grin

Ваш часовий пояс: GMT + 2 Години

Нова тема   Відповісти