Супер 8 / Super 8 (2011) 1080p Ukr/Eng | Sub Ukr/Eng

Нові коментарі

Нова тема   Відповісти
Автор Повідомлення
staf777 
Відео Гуртом - підтримка та поширення
Відео Гуртом - підтримка та поширення


З нами з: 16.11.16
Востаннє: 20.05.19
Повідомлень: 2361

2018-07-21 19:20  
Супер 8 / Super 8 (2011) 1080p Ukr/Eng | Sub Ukr/Eng

Супер 8 / Super 8 (2011) 1080p Ukr/Eng | Sub Ukr/Eng


Жанр: екшн, фантастика, детектив
Країна: США



Кінокомпанія: Paramount Pictures, Amblin Entertainment, Bad Robot
Режисер: Джей Джей Абрамс
Актори: Джоель Кортні, Джессіка Так, Джоель МакКіннон Міллер, Раян Лі, Зак Міллс

Сюжет:
Влітку 1979 року кілька підлітків з маленького містечка, які знімали аматорський фільм на камеру «Супер 8», стали свідками залізничної катастрофи. І незабаром вони починають підозрювати, що це не було просто нещасним випадком. Дивні зникнення та незрозумілі події починають відбуватися в містечку, і місцевий шериф намагається розгадати їх таємницю - щось куди більш жахливе, ніж всі могли собі уявити.


Тривалість: 01:51:48
Якість: 1080p
Відео:
кодек:
розмір кадру: 1920x800
бітрейт: 13,5 Mб/с

Аудіо # 1:
мова: українська
переклад: професійний дубльований
кодек: 5.1
бітрейт: 448 кб/с

Аудіо # 2:
мова: англійська
переклад: оригінал
кодек: 5.1
бітрейт: 1510 кб/с

Аудіо # 3:
мова: англійська
переклад: коментарі
кодек: 2.0
бітрейт: 224 кб/с

Субтитри # 1:
мова: українська
тип: програмні (м'які)
формат: *.srt

Субтитри # 2:
мова: англійська
тип: програмні (м'які)
формат: *.srt
Info
General
Unique ID : 274034915137011980381497958196039149013 (0xCE293473796E8696936A5EB47B3C65D5)
Complete name : D:\Майбутні релізи\Super 8 (2011) 1080p [UA-ENG] [Hurtom].
Format :
Format version : Version 4 / Version 2
File size : 12.2 GiB
Duration : 1 h 51 min
Overall bit rate : 15.6 Mb/s
Movie name : Super 8 (2011) 1080p [UA-ENG] [Hurtom]
Encoded date : UTC 2018-07-21 17:47:10
Writing application : v24.0.0 ('Beyond The Pale') 64-bit
Writing library : libebml v1.3.6 + v1.4.9
Cover : Yes
Attachments : cover.jpg

Video
ID : 1
Format : AVC
Format/Info : Advanced Video Codec
Format profile : [email protected]
Format settings : CABAC / 4 Ref Frames
Format settings, CABAC : Yes
Format settings, ReFrames : 4 frames
Codec ID : V_MPEG4/ISO/AVC
Duration : 1 h 51 min
Bit rate : 13.5 Mb/s
Width : 1 920 pixels
Height : 800 pixels
Display aspect ratio : 2.40:1
Frame rate mode : Constant
Frame rate : 23.976 FPS
Color space : YUV
Chroma subsampling : 4:2:0
Bit depth : 8 bits
Scan type : Progressive
Bits/(Pixel*Frame) : 0.365
Stream size : 10.5 GiB (86%)
Title : Super 8 (2011) 1080p BluRay WiKi
Writing library : core 98 r1649 c54c47d
Encoding settings : cabac=1 / ref=4 / deblock=1:-3:-3 / analyse=0x3:0x113 / me=umh / subme=9 / psy=1 / psy_rd=1.10:0.00 / mixed_ref=1 / me_range=32 / chroma_me=1 / trellis=2 / 8x8dct=1 / cqm=0 / deadzone=21,11 / fast_pskip=0 / chroma_qp_offset=-4 / threads=12 / sliced_threads=0 / nr=0 / decimate=0 / interlaced=0 / constrained_intra=0 / bframes=6 / b_pyramid=2 / b_adapt=2 / b_bias=0 / direct=3 / weightb=1 / weightp=2 / keyint=250 / keyint_min=25 / scenecut=40 / intra_refresh=0 / rc_lookahead=48 / rc=2pass / mbtree=1 / bitrate=13454 / ratetol=1.0 / qcomp=0.60 / qpmin=10 / qpmax=51 / qpstep=4 / cplxblur=20.0 / qblur=0.5 / ip_ratio=1.40 / aq=1:0.80
Language : English
Default : No
Forced : No

Audio #1
ID : 2
Format : AC-3
Format/Info : Audio Coding 3
Codec ID : A_AC3
Duration : 1 h 51 min
Bit rate mode : Constant
Bit rate : 448 kb/s
Channel(s) : 6 channels
Channel positions : Front: L C R, Side: L R, LFE
Sampling rate : 48.0 kHz
Frame rate : 31.250 FPS (1536 SPF)
Bit depth : 16 bits
Compression mode : Lossy
Stream size : 358 MiB (3%)
Title : [UA-DUB]
Language : Ukrainian
Service kind : Complete Main
Default : Yes
Forced : Yes

Audio #2
ID : 3
Format :
Format/Info : Digital Theater Systems
Codec ID : A_DTS
Duration : 1 h 51 min
Bit rate mode : Constant
Bit rate : 1 510 kb/s
Channel(s) : 6 channels
Channel positions : Front: L C R, Side: L R, LFE
Sampling rate : 48.0 kHz
Frame rate : 93.750 FPS (512 SPF)
Bit depth : 24 bits
Compression mode : Lossy
Stream size : 1.18 GiB (10%)
Title : Original
Language : English
Default : No
Forced : No

Audio #3
ID : 4
Format : AC-3
Format/Info : Audio Coding 3
Codec ID : A_AC3
Duration : 1 h 51 min
Bit rate mode : Constant
Bit rate : 224 kb/s
Channel(s) : 2 channels
Channel positions : Front: L R
Sampling rate : 48.0 kHz
Frame rate : 31.250 FPS (1536 SPF)
Bit depth : 16 bits
Compression mode : Lossy
Stream size : 179 MiB (1%)
Title : Commentary
Language : English
Service kind : Complete Main
Default : No
Forced : No

Text #1
ID : 5
Format : UTF-8
Codec ID : S_TEXT/UTF8
Codec ID/Info : UTF-8 Plain Text
Duration : 1 h 50 min
Bit rate : 83 b/s
Count of elements : 1469
Stream size : 67.9 KiB (0%)
Title : Sub
Language : Ukrainian
Default : No
Forced : No

Text #2
ID : 6
Format : UTF-8
Codec ID : S_TEXT/UTF8
Codec ID/Info : UTF-8 Plain Text
Duration : 1 h 48 min
Bit rate : 65 b/s
Count of elements : 1461
Stream size : 51.8 KiB (0%)
Title : Sub
Language : English
Default : No
Forced : No

Menu
00:00:00.000 : Chapter.01
00:07:01.504 : Chapter.02
00:11:33.275 : Chapter.03
00:19:25.164 : Chapter.04
00:26:43.518 : Chapter.05
00:33:36.514 : Chapter.06
00:40:30.511 : Chapter.07
00:45:42.156 : Chapter.08
00:51:57.114 : Chapter.09
00:56:59.958 : Chapter.10
01:02:24.365 : Chapter.11
01:08:12.505 : Chapter.12
01:13:30.906 : Chapter.13
01:18:33.875 : Chapter.14
01:25:31.334 : Chapter.15
01:30:25.378 : Chapter.16
01:38:20.352 : Chapter.17
01:43:37.836 : Chapter.18
Скріншоти




Джерело: &
Особиста оцінка: 0 - не дивився


 Трекер:    Зареєстрований   

Завантажити / скачати фільм українською



відео для новачків



 Зареєстрований:   2018-07-21 22:02
 Розмір:   12.2 GB 
 Оцінка фільму:   9.1/10 (Голосів: 15)
   
Інші релізи
   Супер 8 / Super 8 (2011) AVC Ukr/Eng | Sub Ukr/Eng staf777  3 / 0   2.91 GB   2018-08-19 17:37 
   Супер 8 / Super 8 (2011) 1080p H.265 Ukr/Eng | Sub Ukr/Eng -Star-Lord-  4 / 0   5.19 GB   2018-08-19 02:04 
   Супер 8 / Super 8 (2011) Remux 1080p Ukr/Eng | Sub Ukr/Eng HI-FI SOUND  4 / 0   31.35 GB   2016-08-13 22:38 
   Супер 8 / Super 8 (2011) 720p Ukr/Eng | Sub Ukr/Eng Dim-ON  4 / 0   6.91 GB   2011-11-26 13:27 
   Супер 8 / Super 8 (2011) Ukr/Eng | Sub Ukr/Eng hellforces  8 / 0   2.18 GB   2011-11-23 23:51 
bot 
робот


З нами з: 30.09.07
Востаннє: 26.05.05
Повідомлень: 21356

2018-07-21 22:02  
Тему перенесено з Анонси релізів до форуму Фільми в HD


staf777

Custo 12 
Свій


З нами з: 08.11.16
Востаннє: 20.05.19
Повідомлень: 91

2018-07-25 15:42  
Я би то назвав "another E.T. movie", якісно, але дитячий.
Ваш часовий пояс: GMT + 2 Години

Нова тема   Відповісти