Формула 1. Сезон 2018. Етап 11. Гран-Прі Німеччини. Кваліфікація (21.07.2018) 1080p

Нові коментарі

Нова тема   Відповісти
Автор Повідомлення
sergiyko.5 
Забанено
Забанено


З нами з: 25.02.16
Востаннє: 29.10.20
Повідомлень: 3651

2018-07-21 17:49  
Формула 1. Сезон 2018. Етап 11. Гран-Прі Німеччини. Кваліфікація (21.07.2018) 1080p


Формула 1. Сезон 2018. Етап 11. Гран-Прі Німеччини. Кваліфікація (21.07.2018) 1080p

Жанр: Перегони Формули 1
Країна: Німеччина
Телеканал: Перший автомобільний
Коментатор: Максим Подзігун

Опис:
Кваліфікація одинадцятого етапу Гран-Прі Німеччини 2018 року.


Тривалість: 01:20:58
Якість:

Відео: кодек: розмір кадру: 1920 х 1080 бітрейт: 7900 кб/с
Аудіо: мова: українська кодек: 2.0 бітрейт: 192 кб/с
Про файл:

General
Unique ID : 113507053710251078447671774226010008529 (0x5564A9D238AEE65549B0EF5A15F2EBD1)
Complete name : D:\Torrents\SPORT\Formula 1\F1.2018.Qualifying\F1.2018.11.Germany.Qualifying.1080p..Ukr.
Format :
Format version : Version 4 / Version 2
File size : 4.58 GiB
Duration : 1 h 20 min
Overall bit rate : 8 102 kb/s
Encoded date : UTC 2018-07-21 15:33:26
Writing application : v24.0.0 ('Beyond The Pale') 64-bit
Writing library : libebml v1.3.6 + v1.4.9

Video
ID : 1
Format : AVC
Format/Info : Advanced Video Codec
Format profile : [email protected]
Format settings : CABAC / 4 Ref Frames
Format settings, CABAC : Yes
Format settings, ReFrames : 4 frames
Codec ID : V_MPEG4/ISO/AVC
Duration : 1 h 20 min
Bit rate : 7 907 kb/s
Width : 1 920 pixels
Height : 1 080 pixels
Display aspect ratio : 16:9
Frame rate mode : Constant
Frame rate : 25.000 FPS
Color space : YUV
Chroma subsampling : 4:2:0
Bit depth : 8 bits
Scan type : Progressive
Bits/(Pixel*Frame) : 0.153
Stream size : 4.47 GiB (98%)
Title : F1 2018 11 Germany Qualifying
Language : English
Default : Yes
Forced : No

Audio
ID : 2
Format :
Format/Info : Advanced Audio Codec
Format profile : LC
Codec ID : A_AAC-2
Duration : 1 h 20 min
Bit rate : 192 kb/s
Channel(s) : 2 channels
Channel positions : Front: L R
Sampling rate : 44.1 kHz
Frame rate : 43.066 FPS (1024 SPF)
Compression mode : Lossy
Stream size : 111 MiB (2%)
Title : 1 Авто | Максим Подзігун
Language : Ukrainian
Default : Yes
Forced : No
Скріншоти:


Автор запису: Callistus


 Трекер:    Зареєстрований   

Завантажити / скачати торрент



відео для новачків



 Зареєстрований:   2018-07-21 17:49
 Розмір:   4.58 GB 
 Оцінка:   9.2/10 (Голосів: 13)
   
VicCob 
Свій


З нами з: 16.06.10
Востаннє: 25.10.20
Повідомлень: 58

2018-07-22 05:57  
Дякую!
allavladic22 
Новенький


З нами з: 07.04.18
Востаннє: 29.10.20
Повідомлень: 10

2018-07-22 19:32  
Дякую!!!
Ваш часовий пояс: GMT + 2 Години

Нова тема   Відповісти