Пташиний ульот (Richard the Stork) / A Stork's Journey (2017) AVC

Нові коментарі

Нова тема   Відповісти
Автор Повідомлення
sergiyko.5 
VIP


З нами з: 25.02.16
Востаннє: 05.12.19
Повідомлень: 2801

2018-07-21 05:55  
Пташиний ульот / Richard the Stork / A Stork's Journey (2017) AVC


Пташиний ульот (Richard the Stork) / A Stork's Journey (2017) AVC

Жанр: пригоди, сімейний
Країна: Німеччина, Бельгія, Люксембург, Норвегія, США



Кінокомпанія: Den Siste Skilling, Ulysses Filmproduktion, Walking The Dog, Knudsen & Streuber Medienmanufaktur
Режисер: Тобі Генкель, Реза Мемарі
Актори: Крістіан Гол, Ніколетт Кребіц, Маркус Офф, Мауд Акерманн, Джиммі Дзоппі

Сюжет:
Горобчик Річі дізнається, що в дитинстві він був усиновлений лелеками, коли їм настав час вирушити в далеку Африку. Для Річі тривалий переліт виявився не по силам і прийомні батьки залишили його. Бажаючи довести оточуючим і, насамперед, самому собі, що він справжній лелека, Річі, заручившись підтримкою друзів, відправляється в нелегку, але цікаву подорож...


Цікаві факти про мультфільм "Пташиний ульот":
- Це режисерський та сценарний дебют Рези Мемари.
- Прем'єра мультфільму в лютому 2017 року на Міжнародному Берлінському кінофестивалі.
- Брюссельська філармонія брала участь у записі саундтрека до мультфільму "Пташиний ульот ".

Тривалість: 01:24:22
Якість:

Відео: кодек: розмір кадру: 1024 х 552 бітрейт: 1638 кб/с
Аудіо: мова: українська переклад: професійний дубльований кодек: 2.0 бітрейт: 192 кб/с
Джерело озвучення: | студія Tretyakoff production
Про файл:
General
Unique ID : 182145881222967369482274717168406712769 (0x8908054BE6B92B9A634129E2CA7D51C1)
Complete name : E:\MULTFILMS\Richard the Stork.2017..
Format :
Format version : Version 4 / Version 2
File size : 1.08 GiB
Duration : 1 h 24 min
Overall bit rate : 1 831 kb/s
Movie name : Richard the Stork 2017 by sergiyko
Encoded date : UTC 2018-07-21 03:44:06
Writing application : v24.0.0 ('Beyond The Pale') 64-bit
Writing library : libebml v1.3.6 + v1.4.9

Video
ID : 1
Format : AVC
Format/Info : Advanced Video Codec
Format profile : [email protected]
Format settings : CABAC / 12 Ref Frames
Format settings, CABAC : Yes
Format settings, ReFrames : 12 frames
Codec ID : V_MPEG4/ISO/AVC
Duration : 1 h 24 min
Bit rate : 1 638 kb/s
Width : 1 024 pixels
Height : 552 pixels
Display aspect ratio : 1.85:1
Frame rate mode : Constant
Frame rate : 23.976 FPS
Color space : YUV
Chroma subsampling : 4:2:0
Bit depth : 8 bits
Scan type : Progressive
Bits/(Pixel*Frame) : 0.121
Stream size : 988 MiB (89%)
Title : Richard the Stork 2017
Writing library : core 146 r2538 121396c
Encoding settings : cabac=1 / ref=12 / deblock=1:-1:-1 / analyse=0x3:0x133 / me=umh / subme=9 / psy=1 / psy_rd=0.40:0.00 / mixed_ref=1 / me_range=24 / chroma_me=1 / trellis=2 / 8x8dct=1 / cqm=0 / deadzone=21,11 / fast_pskip=1 / chroma_qp_offset=-2 / threads=24 / lookahead_threads=4 / sliced_threads=0 / nr=0 / decimate=1 / interlaced=0 / bluray_compat=0 / constrained_intra=0 / bframes=8 / b_pyramid=2 / b_adapt=2 / b_bias=0 / direct=1 / weightb=1 / open_gop=0 / weightp=2 / keyint=250 / keyint_min=23 / scenecut=40 / intra_refresh=0 / rc_lookahead=60 / rc=crf / mbtree=1 / crf=19.0 / qcomp=0.70 / qpmin=0 / qpmax=69 / qpstep=4 / ip_ratio=1.40 / aq=1:0.60
Language : English
Default : Yes
Forced : No

Audio
ID : 2
Format : AC-3
Format/Info : Audio Coding 3
Codec ID : A_AC3
Duration : 1 h 24 min
Bit rate mode : Constant
Bit rate : 192 kb/s
Channel(s) : 2 channels
Channel positions : Front: L R
Sampling rate : 48.0 kHz
Frame rate : 31.250 FPS (1536 SPF)
Bit depth : 16 bits
Compression mode : Lossy
Stream size : 116 MiB (10%)
Title : DUB | ТЕТ
Language : Ukrainian
Service kind : Complete Main
Default : Yes
Forced : No

Menu
00:00:00.000 : en:00:00:00.000
00:10:06.022 : en:00:10:06.022
00:21:00.008 : en:00:21:00.008
00:31:02.443 : en:00:31:02.443
00:43:06.000 : en:00:43:06.000
00:52:04.538 : en:00:52:04.538
01:03:14.081 : en:01:03:14.081
01:13:09.760 : en:01:13:09.760
01:18:29.955 : en:01:18:29.955
Скріншоти:


Запис/синхронізація: sergiyko


 Трекер:    Зареєстрований   

Завантажити / скачати мультфільм українською



відео для новачків



 Зареєстрований:   2018-07-21 22:26
 Розмір:   1.08 GB 
 Оцінка мультфільму:   9.3/10 (Голосів: 38)
   
Інші релізи
drop_plz 
VIP


З нами з: 07.02.14
Востаннє: 05.12.19
Повідомлень: 1914

2018-07-21 07:20  
було б добре для пошуку ще додати назву з IMDB
igor911 
Модератор відео


З нами з: 18.01.08
Востаннє: 05.12.19
Повідомлень: 13711

2018-07-21 11:09  
drop_plz, додав.
sergiyko.5 
VIP


З нами з: 25.02.16
Востаннє: 05.12.19
Повідомлень: 2801

2018-10-29 21:47  
Нормальний мульт.
Djohnnikey 
VIP


З нами з: 01.10.15
Востаннє: 04.12.19
Повідомлень: 279

2018-12-03 23:04  
Мультфільми не феєричний, але у цілому під час перегляду не сумуєш. Щоправда логічні історії, наприклад, чому папуга раптом зрозумів, що Річі його друг - не завжди нормально прописані. У голубів, як завжди, роль головних антигероїв. Єдине що абсолютно незрозуміло: чому Борсука зробили прямо-таки Шредером?..
Поставлю 7 з 10.

eXteSy- 
VIP


З нами з: 06.04.09
Востаннє: 05.12.19
Повідомлень: 2012

2019-12-02 01:12  
Добрий і приємний мульт. Не варто очікувати нічого шедеврального, але це - міцно зроблений середняк. Анімація трохи дивна: моментами кострубата, моментами - суперова (наприклад, вода).
Сюжет відображає теперішні толерантні тренди і розказує про те, що можна досягти чого завгодно і бути ким завгодно, незважаючи на те, ким ти народився. Останніми роками фільмів/мультів, які обігрують різноманітними способами цю тему, просто безліч.
7/10

Ваш часовий пояс: GMT + 2 Години

Нова тема   Відповісти