Бувай, дитинко, бувай / Gone Baby Gone (2007) 720p 2xUkr/Eng | Sub Ukr/Eng

Нові коментарі

Нова тема   Відповісти
Автор Повідомлення
Anonymous 







2018-07-21 02:16  
Бувай, дитинко, бувай / Gone Baby Gone (2007) 720p 2xUkr/Eng | Sub Ukr/Eng

Бувай, дитинко, бувай / Gone Baby Gone (2007) 720p 2xUkr/Eng | Sub Ukr/Eng
Український постер:

Бувай, дитинко, бувай / Gone Baby Gone (2007) 720p 2xUkr/Eng | Sub Ukr/Eng


Жанр: драма, кримінальний, трилер, детектив
Країна: США



Кінокомпанія: Miramax Films | The Ladd Company
Режисер: Бен Аффлек / Ben Affleck
Актори: Кейсі Аффлек, Мішель Монаган / Michelle Monaghan, Морган Фрімен / Morgan Freeman, Ед Гарріс / Ed Harris, Джон Ештон, Емі Райан, Емі Медіган, Тітус Веллівер, Майкл К. Вільямс, Еді Гатегі та інші

Сюжет:
У передмісті Бостона без вісті пропадає чотирирічна Аманда МакКріді. Її тітка просить двох приватних детективів, Патріка Кензі і Анджелу Дженнаро, почати власне розслідування, через їх неофіційні зв'язки, бо пошуки поліції безрезультатні. Спочатку вони не поспішають братися за безнадійну справу, проте нові обставини примушують їх поставити на кон не тільки власну професійну репутацію, але і життя.



Рейтинг MPAA: R - особам до 17 років обов'язкова присутність батьків або дорослого опікуна
Вікова категорія: 16+


Тривалість: 01:53:55
Якість: 720p
Відео:
кодек:
розмір кадру: 1280x692
бітрейт: 4930 кб/с

Аудіо # 1:
мова: українська
переклад: багатоголосий закадровий
кодек: 2.0 (стерео)
бітрейт: 192 кб/с

Аудіо # 2:
мова: українська
переклад: багатоголосий закадровий
ролі озвучили: Кейсі Афлек - Олег Стальчук, Юрій Гребельник, Дмитро Гаврилов і один жіночий голос
кодек: 5.1
бітрейт: 384 кб/с

Аудіо # 3:
мова: англійська
переклад: оригінал
кодек: 5.1
бітрейт: 640 кб/с

Субтитри # 1:
мова: українська (повні)
тип: програмні (м'які)
формат: *.srt

Субтитри # 2:
мова: англійська (повні)
тип: програмні (м'які)
формат: *.srt

Збережено оригінальні розділи, як на Blu-ray
Info
Код:

Complete name               : Gone Baby Gone (2007) [2xUkr,Eng sub.Ukr,Eng] 720p [Hurtom].
Format                      :
Format version              : Version 4
File size                   : 4.89 GiB
Duration                    : 1 h 53 min
Overall bit rate            : 6 141 kb/s
Movie name                  : Бувай, дитинко, бувай / Gone Baby Gone (2007) [2xUkr,Eng sub.Ukr,Eng] 720p [Hurtom]
Released date               : 2007
Encoded date                : UTC 2019-08-23 16:14:40
Writing application         : v36.0.0 ('Is That Jazz?') 64-bit
Writing library             : libebml v1.3.9 + v1.5.2
Cover                       : Yes
Comment                     : https://www.imdb.com/title/tt0452623/
Attachments                 : cover.jpg
DIRECTOR                    : Бен Аффлек / Ben Affleck
GENRE                       : драма, кримінальний
SYNOPSIS                    : У передмісті Бостона без вісті пропадає чотирирічна Аманда МакКріді. Її тітка просить двох приватних детективів, Патріка Кензі і Анджелу Дженнаро, почати власне розслідування, через їх неофіційні зв'язки, бо пошуки поліції безрезультатні. Спочатку вони не поспішають братися за безнадійну справу, проте нові обставини примушують їх поставити на кон не тільки власну професійну репутацію, але і життя....
Url                         : https://toloka.to/t93570

Video
ID                          : 1
Format                      : AVC
Format/Info                 : Advanced Video Codec
Format profile              : [email protected]
Format settings             : CABAC / 9 Ref Frames
Format settings, CABAC      : Yes
Format settings, Reference  : 9 frames
Codec ID                    : V_MPEG4/ISO/AVC
Duration                    : 1 h 53 min
Bit rate                    : 4 930 kb/s
Width                       : 1 280 pixels
Height                      : 692 pixels
Display aspect ratio        : 1.85:1
Frame rate mode             : Constant
Frame rate                  : 23.976 (24000/1001) FPS
Color space                 : YUV
Chroma subsampling          : 4:2:0
Bit depth                   : 8 bits
Scan type                   : Progressive
Bits/(Pixel*Frame)          : 0.232
Stream size                 : 3.92 GiB (80%)
Title                       : Бувай, дитинко, бувай / Gone Baby Gone (2007) 720p [denis100]
Writing library             : core 146 r2538 121396c
Encoding settings           : cabac=1 / ref=9 / deblock=1:-3:-3 / analyse=0x3:0x133 / me=umh / subme=11 / psy=1 / psy_rd=1.00:0.00 / mixed_ref=1 / me_range=48 / chroma_me=1 / trellis=2 / 8x8dct=1 / cqm=0 / deadzone=21,11 / fast_pskip=0 / chroma_qp_offset=-2 / threads=6 / lookahead_threads=1 / sliced_threads=0 / nr=0 / decimate=1 / interlaced=0 / bluray_compat=0 / constrained_intra=0 / bframes=12 / b_pyramid=2 / b_adapt=2 / b_bias=0 / direct=3 / weightb=1 / open_gop=0 / weightp=2 / keyint=240 / keyint_min=23 / scenecut=40 / intra_refresh=0 / rc=2pass / mbtree=0 / bitrate=4930 / ratetol=1.0 / qcomp=0.60 / qpmin=0 / qpmax=69 / qpstep=4 / cplxblur=20.0 / qblur=0.5 / ip_ratio=1.40 / pb_ratio=1.30 / aq=1:0.90
Language                    : English
Default                     : Yes
Forced                      : No

Audio #1
ID                          : 2
Format                      : AC-3
Format/Info                 : Audio Coding 3
Commercial name             : Dolby Digital
Codec ID                    : A_AC3
Duration                    : 1 h 53 min
Bit rate mode               : Constant
Bit rate                    : 192 kb/s
Channel(s)                  : 2 channels
Channel layout              : L R
Sampling rate               : 48.0 kHz
Frame rate                  : 31.250 FPS (1536 SPF)
Bit depth                   : 16 bits
Compression mode            : Lossy
Stream size                 : 156 MiB (3%)
Title                       : MVO [AMC], 2.0 [stereo] 192 Kbps [Hurtom - Sando7, kryk-v.ya.]
Language                    : Ukrainian
Service kind                : Complete Main
Default                     : Yes
Forced                      : No

Audio #2
ID                          : 3
Format                      : AC-3
Format/Info                 : Audio Coding 3
Commercial name             : Dolby Digital
Codec ID                    : A_AC3
Duration                    : 1 h 53 min
Bit rate mode               : Constant
Bit rate                    : 384 kb/s
Channel(s)                  : 6 channels
Channel layout              : L R C LFE Ls Rs
Sampling rate               : 48.0 kHz
Frame rate                  : 31.250 FPS (1536 SPF)
Bit depth                   : 16 bits
Compression mode            : Lossy
Stream size                 : 313 MiB (6%)
Title                       : MVO [ICTV] 5.1 384 Kbps
Language                    : Ukrainian
Service kind                : Complete Main
Default                     : No
Forced                      : No

Audio #3
ID                          : 4
Format                      : AC-3
Format/Info                 : Audio Coding 3
Commercial name             : Dolby Digital
Codec ID                    : A_AC3
Duration                    : 1 h 53 min
Bit rate mode               : Constant
Bit rate                    : 640 kb/s
Channel(s)                  : 6 channels
Channel layout              : L R C LFE Ls Rs
Sampling rate               : 48.0 kHz
Frame rate                  : 31.250 FPS (1536 SPF)
Bit depth                   : 16 bits
Compression mode            : Lossy
Stream size                 : 522 MiB (10%)
Title                       : Original, 5.1 640 Kbps
Language                    : English
Service kind                : Complete Main
Default                     : No
Forced                      : No

Text #1
ID                          : 5
Format                      : UTF-8
Codec ID                    : S_TEXT/UTF8
Codec ID/Info               : UTF-8 Plain Text
Duration                    : 1 h 47 min
Bit rate                    : 126 b/s
Count of elements           : 1594
Stream size                 : 99.5 KiB (0%)
Title                       : Ukr full
Language                    : Ukrainian
Default                     : No
Forced                      : No

Text #2
ID                          : 6
Format                      : UTF-8
Codec ID                    : S_TEXT/UTF8
Codec ID/Info               : UTF-8 Plain Text
Duration                    : 1 h 47 min
Bit rate                    : 76 b/s
Count of elements           : 1554
Stream size                 : 59.9 KiB (0%)
Title                       : Eng Full
Language                    : English
Default                     : No
Forced                      : No

Menu
00:00:00.000                : en:00:00:00.000
00:05:22.487                : en:00:05:22.487
00:10:05.104                : en:00:10:05.104
00:16:28.445                : en:00:16:28.445
00:20:51.750                : en:00:20:51.750
00:25:30.693                : en:00:25:30.693
00:30:31.871                : en:00:30:31.871
00:35:47.143                : en:00:35:47.143
00:37:11.061                : en:00:37:11.061
00:44:31.876                : en:00:44:31.876
00:52:06.623                : en:00:52:06.623
00:56:24.713                : en:00:56:24.713
01:02:16.356                : en:01:02:16.356
01:08:44.036                : en:01:08:44.036
01:13:31.323                : en:01:13:31.323
01:19:15.332                : en:01:19:15.332
01:27:00.965                : en:01:27:00.965
01:31:03.332                : en:01:31:03.332
01:39:31.465                : en:01:39:31.465
01:44:09.783                : en:01:44:09.783
01:49:06.081                : en:01:49:06.081



Джерело: &
Українські доріжки: kryk-v.ya., Sando7, Romario_O; постер - Microfibra; фільмографії - Віктор, Neo777.

23.08.2019 реліз оновлено - додано озвучення AMC


 Трекер:    Зареєстрований   

Завантажити / скачати фільм українською



відео для новачків



 Зареєстрований:   2019-08-23 18:28
 Розмір:   4.89 GB 
 Оцінка фільму:   9.8/10 (Голосів: 11)
 ЗАЛИШАЙТЕСЬ ЯКОМОГА ДОВШЕ НА РОЗДАЧІ! ЗАВАНТАЖИВ САМ - ДАЙ ЗАВАНТАЖИТИ ІНШИМ!
   
Anonymous 







2019-08-23 18:29  
Реліз оновлено - додано озвучення AMC
Panther2214 
Попереджень: 1
Попереджень: 1 


З нами з: 29.09.17
Востаннє: 20.11.19
Повідомлень: 373

2019-09-01 20:58  
Інколи краще правди не знати, щоб докопатися до істини, вона може бути як солодкою і водночас гіркою - стосується головного героя Патріка, у якого був непростий вибір із рішенням... Повчальний фільм, який передає атмосферу подій глядачам та дає змогу зрозуміти, як правильно приймати рішення, вчинити розсудливо... Важко сказати, чи правильно вчинив Патрік??? У кожного своє бачення та оточення і ніякої вини з боку героя немає, все по закону це по - перше, а по - друге, існує служба опіка над дітьми, яка взалюбки би позбавила батьківських прав матері (за наркотики), але як показано у фільмі позов ніхто не подавав, а навіщо, якщо легше викрасти дитину... Звісно красти легко, а за наслідки чомусь ніхто не думає, дивлячись фільм до кінця, постало питання, хто переможе закон чи людяність??? Стрічка справила глибокі враження, пора замислитися над своїми вчинками, рекомендую до перегляду...
Ваш часовий пояс: GMT + 2 Години

Нова тема   Відповісти