Пташиний ульот (Richard the Stork) / A Stork's Journey (2017) 1080p Ukr/Eng

Нові коментарі

Нова тема   Відповісти
Автор Повідомлення
sergiyko.5 
VIP


З нами з: 25.02.16
Востаннє: 26.02.20
Повідомлень: 2954

2018-07-20 21:15  
Пташиний ульот / Richard the Stork / A Stork's Journey (2017) 1080p Ukr/Eng


Пташиний ульот (Richard the Stork) / A Stork's Journey (2017) 1080p Ukr/Eng

Жанр: пригоди, сімейний
Країна: Німеччина, Бельгія, Люксембург, Норвегія, США
Кінокомпанія: Den Siste Skilling, Ulysses Filmproduktion, Walking The Dog, Knudsen & Streuber Medienmanufaktur
Режисер: Тобі Генкель, Реза Мемарі
Актори: Крістіан Гол, Ніколетт Кребіц, Маркус Офф, Мауд Акерманн, Джиммі Дзоппі

Сюжет:
Горобчик Річі дізнається, що в дитинстві він був усиновлений лелеками, коли їм настав час вирушити в далеку Африку. Для Річі тривалий переліт виявився не по силам і прийомні батьки залишили його. Бажаючи довести оточуючим і, насамперед, самому собі, що він справжній лелека, Річі, заручившись підтримкою друзів, відправляється в нелегку, але цікаву подорож...


Цікаві факти про мультфільм "Пташиний ульот":
- Це режисерський та сценарний дебют Рези Мемари.
- Прем'єра мультфільму в лютому 2017 року на Міжнародному Берлінському кінофестивалі.
- Брюссельська філармонія брала участь у записі саундтрека до мультфільму "Пташиний ульот ".



Тривалість: 01:24:22
Якість:

Відео: кодек: розмір кадру: 1920 х 1036 бітрейт: 11400 кб/с
Аудіо 1: мова: українська переклад: професійний дубльований кодек: 2.0 бітрейт: 192 кб/с
Джерело озвучення: | студія Tretyakoff production
Аудіо 2: мова: англійська переклад: оригінал кодек: 5.1 бітрейт: 448 кб/с
Про файл:
General
Unique ID : 69969805759728685358845076398836777306 (0x34A3B1C4F4C4BCE6FCD65C4D98B3815A)
Complete name : E:\MULTFILMS\Richard the Stork.2017.1080p..Ukr.Eng.
Format :
Format version : Version 4 / Version 2
File size : 7.21 GiB
Duration : 1 h 24 min
Overall bit rate : 12.2 Mb/s
Movie name : Richard the Stork 2017 1080p by sergiyko
Encoded date : UTC 2018-07-20 21:06:24
Writing application : v24.0.0 ('Beyond The Pale') 64-bit
Writing library : libebml v1.3.6 + v1.4.9
Cover : Yes
Attachments : cover.jpeg

Video
ID : 1
Format : AVC
Format/Info : Advanced Video Codec
Format profile : [email protected]
Format settings : CABAC / 4 Ref Frames
Format settings, CABAC : Yes
Format settings, ReFrames : 4 frames
Codec ID : V_MPEG4/ISO/AVC
Duration : 1 h 24 min
Bit rate : 11.6 Mb/s
Width : 1 920 pixels
Height : 1 036 pixels
Display aspect ratio : 1.85:1
Frame rate mode : Constant
Frame rate : 23.976 (24000/1001) FPS
Color space : YUV
Chroma subsampling : 4:2:0
Bit depth : 8 bits
Scan type : Progressive
Bits/(Pixel*Frame) : 0.243
Stream size : 6.83 GiB (95%)
Language : English
Default : Yes
Forced : No

Audio #1
ID : 2
Format : AC-3
Format/Info : Audio Coding 3
Codec ID : A_AC3
Duration : 1 h 24 min
Bit rate mode : Constant
Bit rate : 192 kb/s
Channel(s) : 2 channels
Channel positions : Front: L R
Sampling rate : 48.0 kHz
Frame rate : 31.250 FPS (1536 SPF)
Bit depth : 16 bits
Compression mode : Lossy
Stream size : 116 MiB (2%)
Title : DUB | ТЕТ
Language : Ukrainian
Service kind : Complete Main
Default : Yes
Forced : Yes

Audio #2
ID : 3
Format : AC-3
Format/Info : Audio Coding 3
Codec ID : A_AC3
Duration : 1 h 24 min
Bit rate mode : Constant
Bit rate : 448 kb/s
Channel(s) : 6 channels
Channel positions : Front: L C R, Side: L R, LFE
Sampling rate : 48.0 kHz
Frame rate : 31.250 FPS (1536 SPF)
Bit depth : 16 bits
Compression mode : Lossy
Stream size : 270 MiB (4%)
Language : English
Service kind : Complete Main
Default : No
Forced : No

Menu
00:00:00.000 : en:00:00:00.000
00:10:06.022 : en:00:10:06.022
00:21:00.008 : en:00:21:00.008
00:31:02.443 : en:00:31:02.443
00:43:06.000 : en:00:43:06.000
00:52:04.538 : en:00:52:04.538
01:03:14.081 : en:01:03:14.081
01:13:09.760 : en:01:13:09.760
01:18:29.955 : en:01:18:29.955
Скріншоти:


Запис/синхронізація: sergiyko


 Трекер:    Зареєстрований   

Завантажити / скачати мультфільм українською



відео для новачків



 Зареєстрований:   2018-07-21 22:28
 Розмір:   7.21 GB 
 Оцінка мультфільму:   8.7/10 (Голосів: 14)
   
Інші релізи
bot 
робот


З нами з: 30.09.07
Востаннє: 26.05.05
Повідомлень: 23374

2018-07-20 23:18  
Тему перенесено з Анонси релізів до форуму Мультфільми в HD


sergiyko.5

xslim 
Відео Гуртом - фільмокрай
Відео Гуртом - фільмокрай


З нами з: 04.03.09
Востаннє: 26.02.20
Повідомлень: 1096

2018-07-21 21:41  
І так переглянув я даний мульт він мені сподобався хороший вийшов.
Але є претензії до СерГейка на початку є розсинхрон десь у дві секунди [потрібно зробити -2000] і це триває до 00:02:58.
Також чутно перехід з оригіналу на дубляж у двох місцях де була реклама.
Тож висновок халтура ще та працюєш на швидкість а не якість, сідай отримуй два, а ще релізеро називається ))))

sergiyko.5 
VIP


З нами з: 25.02.16
Востаннє: 26.02.20
Повідомлень: 2954

2018-07-21 21:52  
Не помиляється той хто нічого не робить, а я виправлю свою помилку у дві початкових хвилини.
igor911 
Модератор відео


З нами з: 18.01.08
Востаннє: 26.02.20
Повідомлень: 14127

2018-07-21 22:13  
припиніть сварку.
sergiyko.5 
VIP


З нами з: 25.02.16
Востаннє: 26.02.20
Повідомлень: 2954

2018-07-21 22:28  
Торент оновлено, виправлено розсинхрон до другої хвилини .
Ваш часовий пояс: GMT + 2 Години

Нова тема   Відповісти