Мирний воїн / Peaceful Warrior (2006) 720p 2xUkr/Eng | Sub Ukr/Eng

Нові коментарі

Нова тема   Відповісти
Автор Повідомлення
Anonymous 







2018-07-20 16:09  
Мирний воїн / Peaceful Warrior (2006) 720p 2xUkr/Eng | Sub Ukr/Eng

Мирний воїн / Peaceful Warrior (2006) 720p 2xUkr/Eng | Sub Ukr/Eng
Оригінальний постер:



Жанр: драма, мелодрама, біографічний, спорт
Країна: Німеччина, США



Кінокомпанія: DEJ Productions, FortyFour Studios, Inferno Distribution, MHF Zweite Academy Film, Sobini Films
Режисер: Віктор Сальва / Victor Salva
Актори: Скотт Мекловіц / Scott Mechlowicz, Нік Нолті / Nick Nolte, Емі Смарт / Amy Smart, Тім ДіКей / Tim DeKay, Ештон Голмс / Ashton Holmes, Пол Веслі / Paul Wesley, Аґнес Брукнер / Agnes Bruckner, Елоді Юнг / Elodie Yung, Том Тарантіні / Tom Tarantini, Беатріс Розен / Beatrice Rosen, Рей Вайз / Ray Wise, Джиммі Бредлі / Jimmy Bradley та інші

Сюжет:
Ден Мілмен - талановитий гімнаст коледжу, який мріє про виступ на Олімпійських іграх. У нього є все: нагороди, друзі по команді, швидкі мотоцикли, дівчата і відчайдушні вечірки.
Світ Дена перевертається з ніг на голову, коли він зустрічає загадкового незнайомця на ім'я Сократ, у якого достатньо можливостей, щоб відкрити новий світ сили та розуміння. Після серйозної травми, за допомогою Сократа і ефемерної молодої дівчини на ім'я Джой, Ден розуміє, що йому багато чого ще доведеться навчитися...

На основі роману Дена Мілмана "Шлях мирного воїна" - міжнародного бестселера, перекладеного на 33 мови. Культовий роман для любителів тренувати власний дух.


Рейтинг MPAA: PG-13 - дітям до 13 років перегляд не бажаний
Вікова категорія: 12+

Тривалість: 02:00:44
Якість: 720p
Відео:
кодек:
розмір кадру: 1280 х 720
бітрейт: 4250 кб/с

Аудіо # 1:
мова: українська
переклад: багатоголосий закадровий
кодек: 2.0
бітрейт: 192 кб/с

Аудіо # 2:
мова: українська
переклад: багатоголосий закадровий | Товариство "Три Крапки" спільно з Проектом Відео Гуртом - озвучення
кодек: 5.1
бітрейт: 384 кб/с
Інформація про озвучення:

Над озвученням працювали: Олексій Петренко, Марина Халвичка та richman
Робота зі звуком: _oles
Аудіо # 3:
мова: англійська
переклад: оригінал
кодек: 5.1
бітрейт: 448 кб/с

Субтитри # 1:
мова: українська
тип: програмні (м'які)
формат: *.srt
примітка:
molfar написано:
українські субтитри створені на основі оригінальної озвучки, російських субтитрів та книжки Дена Мілмана "Шлях мирного воїна"


Субтитри # 2-3:
мова: англійська (повні, SDH)
тип: програмні (м'які)
формат: *.srt

Збережено оригінальні розділи, як на Blu-ray
Info
Код:
Complete name               : Peaceful Warrior (2006) [2xUkr,Eng sub.Ukr,Eng] 720p [Hurtom].
Format                      :
Format version              : Version 4 / Version 2
File size                   : 4.45 GiB
Duration                    : 2 h 0 min
Overall bit rate            : 5 272 kb/s
Movie name                  : Мирний воїн / Peaceful Warrior (2006) [2xUkr,Eng sub.Ukr,Eng] 720p [Hurtom]
Released date               : 2006
Encoded date                : UTC 2018-07-20 17:53:34
Writing application         : v25.0.0 ('Prog Noir') 64-bit
Writing library             : libebml v1.3.6 + v1.4.9
Cover                       : Yes
Comment                     : https://www.imdb.com/title/tt0438315/
Attachments                 : cover.jpg
DIRECTOR                    : Віктор Сальва / Victor Salva
GENRE                       : філософська драма, спорт, біографічний
SYNOPSIS                    : Ден Мілмен - талановитий гімнаст коледжу, який мріє про виступ на Олімпійських іграх. У нього є все: нагороди, друзі по команді, швидкі мотоцикли, дівчата і відчайдушні вечірки. Світ Дена перевертається з ніг на голову, коли він зустрічає загадкового незнайомця на ім'я Сократ, у якого достатньо можливостей, щоб відкрити новий світ сили та розуміння. Після серйозної травми, за допомогою Сократа і ефемерної молодої дівчини на ім'я Джой, Ден розуміє, що йому багато чого ще доведеться навчитися...
Url                         : https://toloka.to/t93562

Video
ID                          : 1
Format                      : AVC
Format/Info                 : Advanced Video Codec
Format profile              : [email protected]
Format settings             : CABAC / 9 Ref Frames
Format settings, CABAC      : Yes
Format settings, ReFrames   : 9 frames
Codec ID                    : V_MPEG4/ISO/AVC
Duration                    : 2 h 0 min
Bit rate                    : 4 250 kb/s
Width                       : 1 280 pixels
Height                      : 720 pixels
Display aspect ratio        : 16:9
Frame rate mode             : Constant
Frame rate                  : 23.976 (24000/1001) FPS
Color space                 : YUV
Chroma subsampling          : 4:2:0
Bit depth                   : 8 bits
Scan type                   : Progressive
Bits/(Pixel*Frame)          : 0.192
Stream size                 : 3.58 GiB (81%)
Title                       : Мирний воїн / Peaceful Warrior (2006) [2xUkr,Eng sub.Ukr,Eng] 720p [Hurtom]
Writing library             : core 146 r2538 121396c
Encoding settings           : cabac=1 / ref=9 / deblock=1:-3:-3 / analyse=0x3:0x133 / me=umh / subme=10 / psy=1 / psy_rd=1.10:0.00 / mixed_ref=1 / me_range=32 / chroma_me=1 / trellis=2 / 8x8dct=1 / cqm=0 / deadzone=21,11 / fast_pskip=1 / chroma_qp_offset=-3 / threads=16 / lookahead_threads=2 / sliced_threads=0 / nr=0 / decimate=0 / interlaced=0 / bluray_compat=0 / constrained_intra=0 / bframes=8 / b_pyramid=2 / b_adapt=2 / b_bias=0 / direct=3 / weightb=1 / open_gop=0 / weightp=2 / keyint=240 / keyint_min=23 / scenecut=40 / intra_refresh=0 / rc=2pass / mbtree=0 / bitrate=4250 / ratetol=2.0 / qcomp=0.60 / qpmin=0 / qpmax=69 / qpstep=4 / cplxblur=20.0 / qblur=0.5 / ip_ratio=1.40 / pb_ratio=1.30 / aq=1:2.00
Language                    : English
Default                     : Yes
Forced                      : No

Audio #1
ID                          : 2
Format                      : AC-3
Format/Info                 : Audio Coding 3
Codec ID                    : A_AC3
Duration                    : 2 h 0 min
Bit rate mode               : Constant
Bit rate                    : 192 kb/s
Channel(s)                  : 2 channels
Channel positions           : Front: L R
Sampling rate               : 48.0 kHz
Frame rate                  : 31.250 FPS (1536 SPF)
Bit depth                   : 16 bits
Compression mode            : Lossy
Stream size                 : 166 MiB (4%)
Title                       : MVO [K1] 2.0 192 Kbps [Hurtom-ninenine, Neytreenor]
Language                    : Ukrainian
Service kind                : Complete Main
Default                     : Yes
Forced                      : Yes

Audio #2
ID                          : 3
Format                      : AC-3
Format/Info                 : Audio Coding 3
Codec ID                    : A_AC3
Duration                    : 2 h 0 min
Bit rate mode               : Constant
Bit rate                    : 384 kb/s
Channel(s)                  : 6 channels
Channel positions           : Front: L C R, Side: L R, LFE
Sampling rate               : 48.0 kHz
Frame rate                  : 31.250 FPS (1536 SPF)
Bit depth                   : 16 bits
Compression mode            : Lossy
Stream size                 : 332 MiB (7%)
Title                       : MVO [Try krapky] 5.1 384 Kbps
Language                    : Ukrainian
Service kind                : Complete Main
Default                     : No
Forced                      : No

Audio #3
ID                          : 4
Format                      : AC-3
Format/Info                 : Audio Coding 3
Codec ID                    : A_AC3
Duration                    : 2 h 0 min
Bit rate mode               : Constant
Bit rate                    : 448 kb/s
Channel(s)                  : 6 channels
Channel positions           : Front: L C R, Side: L R, LFE
Sampling rate               : 48.0 kHz
Frame rate                  : 31.250 FPS (1536 SPF)
Bit depth                   : 16 bits
Compression mode            : Lossy
Stream size                 : 387 MiB (8%)
Title                       : Original, 5.1 448 Kbps
Language                    : English
Service kind                : Complete Main
Default                     : No
Forced                      : No

Text #1
ID                          : 5
Format                      : UTF-8
Codec ID                    : S_TEXT/UTF8
Codec ID/Info               : UTF-8 Plain Text
Duration                    : 1 h 53 min
Bit rate                    : 67 b/s
Count of elements           : 828
Stream size                 : 56.0 KiB (0%)
Title                       : Ukr full [Hurtom-molfar]
Language                    : Ukrainian
Default                     : No
Forced                      : No

Text #2
ID                          : 6
Format                      : UTF-8
Codec ID                    : S_TEXT/UTF8
Codec ID/Info               : UTF-8 Plain Text
Duration                    : 1 h 56 min
Bit rate                    : 38 b/s
Count of elements           : 995
Stream size                 : 32.9 KiB (0%)
Title                       : Eng full
Language                    : English
Default                     : No
Forced                      : No

Text #3
ID                          : 7
Format                      : UTF-8
Codec ID                    : S_TEXT/UTF8
Codec ID/Info               : UTF-8 Plain Text
Duration                    : 1 h 49 min
Bit rate                    : 42 b/s
Count of elements           : 1046
Stream size                 : 33.9 KiB (0%)
Title                       : Eng SDH
Language                    : English
Default                     : No
Forced                      : No

Menu
00:00:00.000                : en:00:00:00.000
00:08:02.250                : en:00:08:02.250
00:13:13.208                : en:00:13:13.208
00:23:27.333                : en:00:23:27.333
00:29:49.500                : en:00:29:49.500
00:39:17.708                : en:00:39:17.708
00:44:35.250                : en:00:44:35.250
00:51:42.458                : en:00:51:42.458
01:00:10.542                : en:01:00:10.542
01:06:53.083                : en:01:06:53.083
01:15:35.583                : en:01:15:35.583
01:21:23.542                : en:01:21:23.542
01:30:26.250                : en:01:30:26.250
01:36:30.000                : en:01:36:30.000
01:44:00.708                : en:01:44:00.708
01:51:59.667                : en:01:51:59.667




Джерело: &
Українські доріжки: 1) Neytreenor запис з ТБ, ninenine синхронізація; 2) _oles створення, igor911 синхронізація під блурей.
Переклад субтитрів: molfar, постер: Тирік.


Золотий реліз (завантажене не впливає на рейтинг)
 Трекер:    Зареєстрований   

Завантажити / скачати фільм українською



відео для новачків



 Зареєстрований:   2018-07-20 20:18
 Розмір:   4.45 GB 
 Оцінка фільму:   9.1/10 (Голосів: 9)
   
Інші релізи
Leben 
VIP


З нами з: 20.07.09
Востаннє: 01.12.19
Повідомлень: 425

2018-07-20 19:14  
Жду... :)
bot 
робот


З нами з: 30.09.07
Востаннє: 26.05.05
Повідомлень: 22589

2018-07-20 20:18  
Тему перенесено з Анонси релізів до форуму Фільми в HD


igor911

dilnix 
Поважний учасник


З нами з: 22.07.12
Востаннє: 05.12.19
Повідомлень: 176

2018-07-23 09:18  
Щиро дякую! Чьоткий реліз крутого кіно ))
voskresenska1 
Новенький


З нами з: 16.01.13
Востаннє: 05.12.19
Повідомлень: 15

2019-07-10 12:02  
Не знаю, як фільм, але книжка неймовірна)
Ваш часовий пояс: GMT + 2 Години

Нова тема   Відповісти