Дикий серцем / Дикі серцем / Wild at Heart (1990) 720p Ukr/Eng | Sub Eng

Нові коментарі

Нова тема   Відповісти
Автор Повідомлення
staf777 
Відео Гуртом - підтримка та поширення
Відео Гуртом - підтримка та поширення


З нами з: 16.11.16
Востаннє: 21.09.20
Повідомлень: 4022

2018-07-20 16:55  
Дикий серцем / Дикі серцем / Wild at Heart (1990) 720p Ukr/Eng | Sub Eng

Дикий серцем / Дикі серцем / Wild at Heart (1990) 720p Ukr/Eng | Sub Eng


Жанр: кримінальний, романтичний, трилер
Країна: США



Кінокомпанія: PolyGram Filmed Entertainment, Propaganda Films
Режисер: Дейвід Лінч (David Lynch)
Актори: Ніколас Кейдж (Nicolas Cage), Віллям Дефо (Willem Dafoe), Лора Дерн (Laura Dern), Кріспін Ґловер (Crispin Glover), Ізабелла Росселіні (Isabella Rossellini) та інші.

Сюжет:
Дикі серцем - це скажене кохання і пригоди двох молодих людей. Сейлор і Лула рятуються від безжалісної команди найманих убивць, найнятих божевільною матір`ю Лули Маріеттою. У гонитву за втікачами спочатку пускається дружок Маріетти, приватний детектив Джоні, а коли Джоні повертається ні із чим, Маріетта кличе на допомогу свого колишнього коханця, гангстера Сантоса...


Тривалість: 02:05:01
Якість: 720p
Відео:
кодек:
розмір кадру: 1280x544
бітрейт: 10,8 Mб/с

Аудіо # 1:
мова: українська
переклад: двоголосий закадровий
кодек: 5.1
бітрейт: 448 кб/с

Аудіо # 2:
мова: англійська
переклад: оригінал
кодек: 5.1
бітрейт: 448 кб/с

Субтитри:
мова: англійська
тип: програмні (м'які)
формат: *.srt
Info та log:
General
Unique ID : 264331598365750553578299452204574083277 (0xC6DC69FF71F66E96BB7076E3564088CD)
Complete name : D:\Майбутні релізи\Wild at Heart (1990) 720p [UA-ENG] [Hurtom].
Format :
Format version : Version 4 / Version 2
File size : 10.2 GiB
Duration : 2 h 4 min
Overall bit rate : 11.7 Mb/s
Movie name : Wild at Heart (1990) 720p [UA-ENG] [Hurtom]
Encoded date : UTC 2018-07-20 12:56:02
Writing application : v24.0.0 ('Beyond The Pale') 64-bit
Writing library : libebml v1.3.6 + v1.4.9
Cover : Yes
Attachments : cover.jpg

Video
ID : 1
Format : AVC
Format/Info : Advanced Video Codec
Format profile : [email protected]
Format settings : CABAC / 12 Ref Frames
Format settings, CABAC : Yes
Format settings, ReFrames : 12 frames
Codec ID : V_MPEG4/ISO/AVC
Duration : 2 h 4 min
Bit rate : 10.8 Mb/s
Width : 1 280 pixels
Height : 544 pixels
Display aspect ratio : 2.35:1
Frame rate mode : Constant
Frame rate : 23.976 (24000/1001) FPS
Color space : YUV
Chroma subsampling : 4:2:0
Bit depth : 8 bits
Scan type : Progressive
Bits/(Pixel*Frame) : 0.646
Stream size : 9.41 GiB (92%)
Writing library : core 152 r2851kMod ba24899
Encoding settings : cabac=1 / ref=12 / deblock=1:-3:-2 / analyse=0x3:0x113 / me=umh / subme=10 / psy=1 / fade_compensate=0.00 / psy_rd=1.00:0.10 / mixed_ref=1 / me_range=40 / chroma_me=1 / trellis=2 / 8x8dct=1 / cqm=0 / deadzone=21,11 / fast_pskip=1 / chroma_qp_offset=-3 / threads=12 / lookahead_threads=3 / sliced_threads=0 / nr=0 / decimate=1 / interlaced=0 / bluray_compat=0 / constrained_intra=0 / bframes=10 / b_pyramid=2 / b_adapt=2 / b_bias=0 / direct=1 / weightb=1 / open_gop=0 / weightp=2 / keyint=240 / keyint_min=23 / scenecut=40 / intra_refresh=0 / rc=crf / mbtree=0 / crf=17.8000 / qcomp=0.63 / qpmin=0 / qpmax=39 / qpstep=4 / ip_ratio=1.40 / pb_ratio=1.30 / aq=2:0.70
Language : English
Default : Yes
Forced : No
Color range : Limited
Color primaries : BT.709
Transfer characteristics : BT.709
Matrix coefficients : BT.709

Audio #1
ID : 2
Format : AC-3
Format/Info : Audio Coding 3
Codec ID : A_AC3
Duration : 2 h 4 min
Bit rate mode : Constant
Bit rate : 448 kb/s
Channel(s) : 6 channels
Channel positions : Front: L C R, Side: L R, LFE
Sampling rate : 48.0 kHz
Frame rate : 31.250 FPS (1536 SPF)
Bit depth : 16 bits
Compression mode : Lossy
Stream size : 400 MiB (4%)
Title : DVO
Language : Ukrainian
Service kind : Complete Main
Default : Yes
Forced : Yes

Audio #2
ID : 3
Format : AC-3
Format/Info : Audio Coding 3
Codec ID : A_AC3
Duration : 2 h 4 min
Bit rate mode : Constant
Bit rate : 448 kb/s
Channel(s) : 6 channels
Channel positions : Front: L C R, Side: L R, LFE
Sampling rate : 48.0 kHz
Frame rate : 31.250 FPS (1536 SPF)
Bit depth : 16 bits
Compression mode : Lossy
Stream size : 400 MiB (4%)
Title : Original
Language : English
Service kind : Complete Main
Default : No
Forced : No

Text
ID : 4
Format : UTF-8
Codec ID : S_TEXT/UTF8
Codec ID/Info : UTF-8 Plain Text
Duration : 2 h 1 min
Bit rate : 45 b/s
Count of elements : 1338
Stream size : 40.1 KiB (0%)
Language : English
Default : No
Forced : No

Menu
00:00:00.000 : en:
00:07:54.098 : en:
00:18:08.670 : en:
00:26:52.736 : en:
00:35:41.347 : en:
00:46:39.087 : en:
00:54:38.900 : en:
01:10:07.036 : en:
01:21:14.077 : en:
01:35:32.727 : en:
01:49:15.757 : en:
02:00:53.079 : en:

Код:
[info]: frame I:1062 Avg QP:17.30 size: 149039
[info]: frame P:31979 Avg QP:18.60 size: 86890
[info]: frame B:146672 Avg QP:20.77 size: 48900
[info]: consecutive B-frames: 0.9% 0.5% 2.2% 5.4% 10.8% 69.6% 5.9% 1.4% 1.2% 1.3% 0.6%
Скріншоти



Подяки:
robotron005 за синхронізацію,
urij546724 за надану сиру доріжку

Джерело: &
Особиста оцінка: 0 - не дивився


Срібний реліз (на рейтинг впливає 50% завантаженого)
 Трекер:    Зареєстрований   

Завантажити / скачати фільм українською



відео для новачків



 Зареєстрований:   2018-07-20 16:55
 Розмір:   10.2 GB 
 Оцінка фільму:   7.9/10 (Голосів: 9)
   
Ваш часовий пояс: GMT + 2 Години

Нова тема   Відповісти