За прірвою у житі / Rebel in the Rye (2017)

Нові коментарі

Нова тема   Відповісти
Автор Повідомлення
Anonymous 







2018-07-19 10:17  
За прірвою у житі / Rebel in the Rye (2017)



Жанр: драма, мелодрама, військовий, біографічний
Країна: США



Кінокомпанія: Black Label Media, West Madison Entertainment
Режисер: Денні Стронг / Danny Strong
Актори: Ніколас Голт / Nicholas Hoult, Зої Дойч / Zoey Deutch, Кевін Спейсі / Kevin Spacey, Сара Полсон / Sarah Paulson, Брайан Д’Арсі Джеймс / Brian d'Arcy James, Люсі Бойнтон / Lucy Boynton, Віктор Ґарбер / Victor Garber, Гоуп Девіс / Hope Davis та інші

Сюжет:
Історія про те, як народився Голден Колфілд, герой культового для багатьох поколінь роману «Над прірвою в житі», і як його автор — Джером Селінджер — став видатним письменником Америки, що вибрав дивовижну долю.
Офіційний український трейлер:

Цікаві факти:

- В основу сюжету фільму "За прірвою в житі" лягла книга Кеннета Славенскі (Kenneth Slawenski) про біографію Дж.Д.Селінджера під назвою "Дж.Д.Селінджер. Життя" (J. D. Salinger: A Life).

- У багатьох біографіях Джерома Селінджера згадується, що ще в 50-х роках письменник заборонив екранізувати свій твір. Умовити Селінджера зробити виняток намагалися багато поважних персон Голлівуду: Стівен Спілберг, Джек Ніколсон, Терренс Малік, Леонардо ДіКапріо, але всі спроби були марними. Джером Селінджер так і залишився при своїй думці, що жоден режисер і жоден актор не зможе повністю і з усією глибиною відобразити героя книги Голдена Колфілда на екрані.

- Книгою був одержимий вбивця Джона Леннона, Марк Чепмен. Чепмен заявив в поліції, що зашифрований наказ убити Леннона він знайшов на сторінках «Над прірвою у житі». Також романом був одержимий Джон Хінклі-мол. - людина, яка вчинила замах на 40-го президента США Рональда Рейгана.

- Відома група Guns N' Roses написала пісню "Catcher In The Rye".

- Роман "Над прірвою у житі" справив великий вплив на творчість і культуру інших відомих письменників: Стівен Кінг часто згадував роман у своїх книгах, Джон Фаулз у романі "Колекціонер" посилається на культовий роман, у романі "Норвезький ліс" Харукі Муракамі згадується Голден Колфілд.

- Актор Кевін Спейсі і режисер Денні Стронг раніше працювали разом на зйомках фільму 2008 року "Recount"

- Режисерський дебют актора і сценариста Денні Стронга.

Рейтинг MPAA: PG-13 - дітям до 13 років перегляд не бажаний
Вікова категорія: 12+

Тривалість: 01:49:05
Якість:

Відео:
кодек:
розмір кадру: 704 х 384
бітрейт: 1460 кб/с

Аудіо # 1:
мова: українська
переклад: багатоголосий закадровий
кодек: 2.0
бітрейт: 192 кб/с
Info
Код:
General
Complete name               : Rebel in the Rye (2017) [Ukr] [Hurtom].avi
Format                      : AVI
Format/Info                 : Audio Video Interleave
File size                   : 1.27 GiB
Duration                    : 1 h 49 min
Overall bit rate            : 1 661 kb/s
Movie name                  : За прірвою у житі / Rebel in the Rye (2017) [Ukr] [Hurtom]
Genre                       : драма, мелодрама, військовий, біографічний
Recorded date               : 19.07.2018
Writing application         : VirtualDubModUkr 1.5.10.2 (build 2542/release)
Writing library             : VirtualDubMod build 2542/release
Comment                     : https://toloka.to/t93536

Video
ID                          : 0
Format                      : MPEG-4 Visual
Format profile              : Advanced [email protected]
Format settings             : BVOP1 / Custom Matrix
Format settings, BVOP       : 1
Format settings, QPel       : No
Format settings, GMC        : No warppoints
Format settings, Matrix     : Custom
Codec ID                    :
Codec ID/Hint               :
Duration                    : 1 h 49 min
Bit rate                    : 1 460 kb/s
Width                       : 704 pixels
Height                      : 384 pixels
Display aspect ratio        : 1.85:1
Frame rate                  : 23.976 (24000/1001) FPS
Color space                 : YUV
Chroma subsampling          : 4:2:0
Bit depth                   : 8 bits
Scan type                   : Progressive
Compression mode            : Lossy
Bits/(Pixel*Frame)          : 0.225
Stream size                 : 1.11 GiB (88%)
Writing library             : 73

Audio
ID                          : 1
Format                      : AC-3
Format/Info                 : Audio Coding 3
Codec ID                    : 2000
Duration                    : 1 h 49 min
Bit rate mode               : Constant
Bit rate                    : 192 kb/s
Channel(s)                  : 2 channels
Channel positions           : Front: L R
Sampling rate               : 48.0 kHz
Frame rate                  : 31.250 FPS (1536 SPF)
Bit depth                   : 16 bits
Compression mode            : Lossy
Stream size                 : 150 MiB (12%)
Alignment                   : Split accross interleaves
Interleave, duration        : 42  ms (1.00 video frame)
Interleave, preload duratio : 500  ms
Title                       : UKR MVO [Мegоgо]
Service kind                : Complete Main




Джерело: &
Подяка п.troubless та п.Electroz'у за українську доріжку.


 Трекер:    Зареєстрований   

Завантажити / скачати фільм українською



відео для новачків



 Зареєстрований:   2018-07-19 10:52
 Розмір:   1.27 GB 
 Оцінка фільму:   9.5/10 (Голосів: 22)
   
Ваш часовий пояс: GMT + 2 Години

Нова тема   Відповісти