Екстрасенси / Розрада / Solace (2015) Remux 1080p 2xUkr/Eng | Sub Eng

Нові коментарі

Нова тема   Відповісти
Автор Повідомлення
staf777 
Відео Гуртом - підтримка та поширення
Відео Гуртом - підтримка та поширення


З нами з: 16.11.16
Востаннє: 29.09.20
Повідомлень: 4073

2018-07-18 16:53  
Екстрасенси / Розрада / Solace (2015) Remux 1080p 2xUkr/Eng | Sub Eng

Екстрасенси / Розрада / Solace (2015) Remux 1080p 2xUkr/Eng | Sub Eng


Жанр: кримінальний, драма, детектив
Країна: США



Кінокомпанія: Eden Rock Media, FilmNation Entertainment, Flynn Picture Company
Режисер: Афонсо Поярт
Актори: Ентоні Гопкінс, Джеффрі Дін Морґан, Колін Фарелл, Еббі Корніш, Марлі Шелтон, Джанін Тернер, Ксандер Берклі, Кенні Джонсон, Хосе Пабло Кантілльо, Джошуа Клоуз

Сюжет:
Напарники, Джо і Кетрін, детективи ФБР, розслідують низку загадкових вбивств. Всі злочини об'єднує щось надприродне - серійний вбивця завжди на крок попереду. Тоді на допомогу правосуддю приходить відставний аналітик спецслужб доктор Джон Кленсі. Його виняткова інтуїція і інтелект можуть допомогти спіймати вбивцю, але незабаром Джон розуміє - його суперник значно перевершує його в здібностях.


Тривалість: 01:41:12
Якість: Remux 1080p
Відео:
кодек:
розмір кадру: 1920x1080
бітрейт: 26,9 Mб/с

Аудіо # 1:
мова: українська
переклад: багатоголосий закадровий
кодек: 2.0
бітрейт: 192 кб/с

Аудіо # 2:
мова: українська
переклад: багатоголосий закадровий
кодек: 2.0
бітрейт: 192 кб/с

Аудіо # 3:
мова: англійська
переклад: оригінал
кодек: -HD MA 5.1
бітрейт: 3840 кб/с

Субтитри # 1-2:(Full), (SDH)
мова: англійська
тип: програмні (м'які)
формат: *.srt
Info
General
Unique ID : 142225286726091766826008318816771938909 (0x6AFF9806E9BA956BE0F493355D0C9A5D)
Complete name : D:\Майбутні релізи\Solace (2015) Remux 1080p [Ukr][Eng] [Sub Eng][Hurtom].
Format :
Format version : Version 4 / Version 2
File size : 22.0 GiB
Duration : 1 h 41 min
Overall bit rate mode : Variable
Overall bit rate : 31.1 Mb/s
Movie name : Solace (2015) Remux 1080p [Ukr][Eng] [Sub Eng][Hurtom]
Encoded date : UTC 2018-07-19 15:03:23
Writing application : v24.0.0 ('Beyond The Pale') 64-bit
Writing library : libebml v1.3.6 + v1.4.9
Cover : Yes
Attachments : cover.jpg

Video
ID : 1
Format : AVC
Format/Info : Advanced Video Codec
Format profile : [email protected]
Format settings : CABAC / 4 Ref Frames
Format settings, CABAC : Yes
Format settings, ReFrames : 4 frames
Format settings, GOP : M=3, N=24
Codec ID : V_MPEG4/ISO/AVC
Duration : 1 h 41 min
Bit rate mode : Variable
Bit rate : 26.9 Mb/s
Maximum bit rate : 36.0 Mb/s
Width : 1 920 pixels
Height : 1 080 pixels
Display aspect ratio : 16:9
Frame rate mode : Constant
Frame rate : 23.976 (24000/1001) FPS
Standard : NTSC
Color space : YUV
Chroma subsampling : 4:2:0
Bit depth : 8 bits
Scan type : Progressive
Bits/(Pixel*Frame) : 0.541
Stream size : 19.0 GiB (87%)
Language : English
Default : Yes
Forced : No
Color range : Limited
Color primaries : BT.709
Transfer characteristics : BT.709
Matrix coefficients : BT.709

Audio #1
ID : 2
Format : AC-3
Format/Info : Audio Coding 3
Codec ID : A_AC3
Duration : 1 h 41 min
Bit rate mode : Constant
Bit rate : 192 kb/s
Channel(s) : 2 channels
Channel positions : Front: L R
Sampling rate : 48.0 kHz
Frame rate : 31.250 FPS (1536 SPF)
Bit depth : 16 bits
Compression mode : Lossy
Stream size : 139 MiB (1%)
Title : [UA-MVO]
Language : Ukrainian
Service kind : Complete Main
Default : Yes
Forced : Yes

Audio #2
ID : 3
Format : AC-3
Format/Info : Audio Coding 3
Codec ID : A_AC3
Duration : 1 h 41 min
Bit rate mode : Constant
Bit rate : 192 kb/s
Channel(s) : 2 channels
Channel positions : Front: L R
Sampling rate : 48.0 kHz
Frame rate : 31.250 FPS (1536 SPF)
Bit depth : 16 bits
Compression mode : Lossy
Stream size : 139 MiB (1%)
Title : [CINE+]
Language : Ukrainian
Service kind : Complete Main
Default : No
Forced : No

Audio #3
ID : 4
Format :
Format/Info : Digital Theater Systems
Format profile : MA / Core
Codec ID : A_DTS
Duration : 1 h 41 min
Bit rate mode : Variable / Constant
Bit rate : 3 840 kb/s / 1 509 kb/s
Channel(s) : 6 channels
Channel positions : Front: L C R, Side: L R, LFE
Sampling rate : 48.0 kHz
Frame rate : 93.750 FPS (512 SPF)
Bit depth : 24 bits
Compression mode : Lossless / Lossy
Stream size : 2.67 GiB (12%)
Title : Original
Language : English
Default : No
Forced : No

Text #1
ID : 5
Format : UTF-8
Codec ID : S_TEXT/UTF8
Codec ID/Info : UTF-8 Plain Text
Duration : 1 h 33 min
Bit rate : 49 b/s
Count of elements : 1043
Stream size : 33.8 KiB (0%)
Language : English
Default : No
Forced : No

Text #2
ID : 6
Format : UTF-8
Codec ID : S_TEXT/UTF8
Codec ID/Info : UTF-8 Plain Text
Duration : 1 h 34 min
Bit rate : 54 b/s
Count of elements : 1164
Stream size : 37.8 KiB (0%)
Title : SDH
Language : English
Default : No
Forced : No

Menu
00:00:00.000 : en:Chapter 01
00:09:13.428 : en:Chapter 02
00:16:38.289 : en:Chapter 03
00:20:26.475 : en:Chapter 04
00:30:19.860 : en:Chapter 05
00:39:57.562 : en:Chapter 06
00:46:02.468 : en:Chapter 07
01:00:26.748 : en:Chapter 08
01:04:05.800 : en:Chapter 09
01:11:37.126 : en:Chapter 10
01:18:46.639 : en:Chapter 11
01:22:42.541 : en:Chapter 12
Скріншоти



slavik_v_z запис Аудіо №1. Sando7 запис Аудіо №2. Синхронізація Gelios
Джерело: &
Особиста оцінка: 8 - мені сподобалося


Золотий реліз (завантажене не впливає на рейтинг)
 Трекер:    Зареєстрований   

Завантажити / скачати фільм українською



відео для новачків



 Зареєстрований:   2018-07-19 18:43
 Розмір:   21.97 GB 
 Оцінка фільму:   10/10 (Голосів: 9)
   
Інші релізи
Ваш часовий пояс: GMT + 2 Години

Нова тема   Відповісти