Кіборг / Cyborg (1989) 1080p Ukr/Eng | Sub Eng

Нові коментарі

Нова тема   Відповісти
Автор Повідомлення
Anonymous 







2018-07-18 12:26  
Кіборг / Cyborg (1989) 1080p Ukr/Eng | Sub Eng

Кіборг / Cyborg (1989) 1080p Ukr/Eng | Sub Eng


Жанр: фантастика, екшн
Країна: США



Кінокомпанія: Cannon Entertainment
Режисер: Альберт П'юн / Albert Pyun
Актори: Жан Клод Ван-Дам / Jean-Claude Van Damme, Дебора Ріхтер / Deborah Richter, Вінсент Клін / Vincent Klyn, Алекс Деніелс / Alex Daniels, Дейл Геддон / Dayle Haddon, Бейс Лунґ / Blaise Loong, Террі Бацон / Terrie Batson та ін.

Сюжет:
21-ше століття. Світ потерпає від суцільної анархії, та смертоносної чуми. І тільки Перл Профет, напівжінка-напівробот, володіє інформацією, що допоможе створити довгоочікувані ліки від чуми. Вона потрапляє до рук злого ватажка банди, що планує використати її знання, та саму вакцину у своїх цілях, і ці цілі не такі вже й милосердні. Тепер лише залізний кулак, та сталеві нерви воїна Гібсона можуть врятувати жінку-кіборга, та доправити її до Атланти, де купка вчених намагаються врятувати людство.


Тривалість: 01:26:06
Якість: 1080p
Відео:
кодек:
розмір кадру: 1920х1036
бітрейт: 11.5 Mb/s

Аудіо # 1:
мова: українська
переклад: двоголосий закадровий
кодек: 2.0
бітрейт: 192 кб/с

Аудіо # 2:
мова: англійська
переклад: оригінал
кодек: 2.0
бітрейт: 1509 кб/с

Субтитри:
мова: англійська
тип: програмні (м'які)
формат: *.srt
Info
General
Unique ID : 189465935248159359246199071718750919092 (0x8E89CFD303B8BC7DA90EC0EBF47199B4)
Format :
Format version : Version 4 / Version 2
File size : 7.94 GiB
Duration : 1 h 26 min
Overall bit rate : 13.2 Mb/s
Movie name : Cyborg.1989.REMASTERED.1080p.BluRay..-FGT
Encoded date : UTC 2018-07-18 10:19:14
Writing application : v6.1.0 ('Old Devil') built on Mar 4 2013 09:10:42
Writing library : libebml v1.3.0 + v1.4.0

Video
ID : 1
Format : AVC
Format/Info : Advanced Video Codec
Format profile : [email protected]
Format settings : CABAC / 4 Ref Frames
Format settings, CABAC : Yes
Format settings, ReFrames : 4 frames
Codec ID : V_MPEG4/ISO/AVC
Duration : 1 h 26 min
Bit rate : 11.5 Mb/s
Width : 1 920 pixels
Height : 1 036 pixels
Display aspect ratio : 1.85:1
Frame rate mode : Constant
Frame rate : 23.976 (24000/1001) FPS
Color space : YUV
Chroma subsampling : 4:2:0
Bit depth : 8 bits
Scan type : Progressive
Bits/(Pixel*Frame) : 0.241
Stream size : 6.76 GiB (85%)
Title : Cyborg.1989.REMASTERED.1080p.BluRay..-FGT
Writing library : core 148 r2795M aaa9aa8
Encoding settings : cabac=1 / ref=4 / deblock=1:-2:-2 / analyse=0x3:0x113 / me=umh / subme=9 / psy=1 / psy_rd=1.00:0.15 / mixed_ref=1 / me_range=16 / chroma_me=1 / trellis=2 / 8x8dct=1 / cqm=0 / deadzone=21,11 / fast_pskip=1 / chroma_qp_offset=-3 / threads=24 / lookahead_threads=3 / sliced_threads=0 / nr=0 / decimate=1 / interlaced=0 / bluray_compat=0 / constrained_intra=0 / bframes=3 / b_pyramid=2 / b_adapt=1 / b_bias=0 / direct=3 / weightb=1 / open_gop=0 / weightp=2 / keyint=250 / keyint_min=25 / scenecut=40 / intra_refresh=0 / rc_lookahead=50 / rc=2pass / mbtree=1 / bitrate=11500 / ratetol=1.0 / qcomp=0.60 / qpmin=0 / qpmax=69 / qpstep=4 / cplxblur=20.0 / qblur=0.5 / vbv_maxrate=31250 / vbv_bufsize=31250 / nal_hrd=none / filler=0 / ip_ratio=1.40 / aq=1:1.00
Language : English
Default : Yes
Forced : No
Statistics Tags Issue : v24.0.0 ('Beyond The Pale') 64-bit 2018-07-17 06:22:34 / v6.1.0 ('Old Devil') built on Mar 4 2013 09:10:42 2018-07-18 10:19:14
FromStats_BitRate : 11493408
FromStats_Duration : 01:26:05.619000000
FromStats_FrameCount : 123851
FromStats_StreamSize : 7421321337

Audio #1
ID : 2
Format : AC-3
Format/Info : Audio Coding 3
Codec ID : A_AC3
Duration : 1 h 26 min
Bit rate mode : Constant
Bit rate : 192 kb/s
Channel(s) : 2 channels
Channel positions : Front: L R
Sampling rate : 48.0 kHz
Frame rate : 31.250 FPS (1536 SPF)
Bit depth : 16 bits
Compression mode : Lossy
Stream size : 118 MiB (1%)
Title : UKR
Language : Ukrainian
Service kind : Complete Main
Default : Yes
Forced : Yes

Audio #2
ID : 3
Format :
Format/Info : Digital Theater Systems
Codec ID : A_DTS
Duration : 1 h 26 min
Bit rate mode : Constant
Bit rate : 1 509 kb/s
Channel(s) : 2 channels
Channel positions : Front: L R
Sampling rate : 48.0 kHz
Frame rate : 93.750 FPS (512 SPF)
Bit depth : 24 bits
Compression mode : Lossy
Stream size : 929 MiB (11%)
Title : Cyborg.1989.REMASTERED.1080p.BluRay..-FGT
Language : English
Default : No
Forced : No
Statistics Tags Issue : v24.0.0 ('Beyond The Pale') 64-bit 2018-07-17 06:22:34 / v6.1.0 ('Old Devil') built on Mar 4 2013 09:10:42 2018-07-18 10:19:14
FromStats_BitRate : 1509000
FromStats_Duration : 01:26:06.027000000
FromStats_FrameCount : 484315
FromStats_StreamSize : 974441844

Text
ID : 4
Format : UTF-8
Codec ID : S_TEXT/UTF8
Codec ID/Info : UTF-8 Plain Text
Language : English
Default : Yes
Forced : No
Statistics Tags Issue : v24.0.0 ('Beyond The Pale') 64-bit 2018-07-17 06:22:34 / v6.1.0 ('Old Devil') built on Mar 4 2013 09:10:42 2018-07-18 10:19:14
FromStats_BitRate : 12
FromStats_Duration : 01:21:20.042000000
FromStats_FrameCount : 301
FromStats_StreamSize : 7753

Menu
00:00:00.000 : en:Chapter 1
00:08:23.128 : en:Chapter 2
00:16:09.594 : en:Chapter 3
00:21:47.306 : en:Chapter 4
00:28:41.929 : en:Chapter 5
00:34:38.451 : en:Chapter 6
00:40:13.119 : en:Chapter 7
00:46:23.990 : en:Chapter 8
00:56:25.674 : en:Chapter 9
01:05:47.152 : en:Chapter 10
01:12:16.332 : en:Chapter 11
01:22:01.792 : en:Chapter 12
Скріншоти




Подяка 0ptimus за україномовну звукову доріжку, та realnitro за українізований постер
Особиста подяка пану denixx за надану матеріальну допомогу на підтримку цього і майбутніх релізів.
Джерело:


Срібний реліз (на рейтинг впливає 50% завантаженого)
 Трекер:    Зареєстрований   

Завантажити / скачати фільм українською



відео для новачків



 Зареєстрований:   2018-07-18 12:26
 Розмір:   7.94 GB 
 Оцінка фільму:   10/10 (Голосів: 4)
   
Інші релізи
   Кіборг / Cyborg (1989) Remux 1080p 2xUkr/Eng | Sub Eng staf777  2 / 0   19.44 GB   2019-10-15 10:11 
   Кіборг / Cyborg (1989) AVC 2xUkr/Eng | Sub Eng staf777  1 / 0   2.22 GB   2019-04-26 20:57 
-VJ- 
VIP


З нами з: 01.11.09
Востаннє: 24.01.20
Повідомлень: 735

2018-07-21 19:56  
Ех, дитинство...
Ваш часовий пояс: GMT + 2 Години

Нова тема   Відповісти