Шоу починається / Showtime (2002) 720p Ukr/Eng | Sub Eng

Нові коментарі

Нова тема   Відповісти
Автор Повідомлення
Anonymous 







2018-07-18 10:41  
Шоу починається / Showtime (2002) 720p Ukr/Eng | Sub Eng

Шоу починається / Showtime (2002) 720p Ukr/Eng | Sub Eng


Жанр: бойовик, комедія, кримінальний
Країна: США, Австралія



Кінокомпанія: Material, NPV Entertainment, Overbrook Entertainment
Режисер: Том Дей
Актори: Роберт Де Ніро, Рейчел Харріс, Едді Мерфі, Зайд Фарід, Алекс Борштейн, Холлі Мендел, Маршалл Манеш

Сюжет:
Детектив Мітч Престогін, от уже двадцять років служить у департаменті поліції Лос-Анджелеса. Він не відрізняється терпінням і багатослівністю. Усе, що йому потрібно, це щоб його залишили в спокої й дали спокійно займатися своєю роботою. А патрульний офіцер Трей Селарз із більшим задоволенням зображував би поліцейського на екрані, ніж виконував його прямі обов'язки в реальному житті. Коли один раз Селарз заважає Престогону виконати секретне завдання, та ще в цей час їх знімає один з репортерів телевізійної новинної програми, Престогін від злості стріляє в камеру, що знімає. Цей випадок не міг не залишитися непоміченим, а через своє імпульсивне поводження Мітч попадає в поле зору продюсера Чейза Рензи. Маючи нюх на потенційно успішні підприємства, Чейз вирішує запросити зовсім позбавленого чарівності Престогону й говіркого, телегенічного Селарза для зйомок у своєму шоу. Це телешоу буде показувати реальні події, що відбуваються із двома поліцейськими на роботі. Незважаючи на те, що Пресотогон спочатку абсолютно не хоче зніматися в шоу, та ще з таким напарником, як Селарз, незабаром вони таки з'являються на телевізійних екранах. Для Мітча - це пекло на землі. Для Трея - мрія, що стала реальністю...


Тривалість: 01:35:21
Якість: 720p
Відео:
кодек:
розмір кадру: 1280х720
бітрейт: 3 817 кб/с

Аудіо # 1:
мова: українська
переклад: багатоголосий закадровий , ,
кодек: 2.0
бітрейт: 192 кб/с

Аудіо # 2:
мова: англійська
переклад: оригінал
кодек: 5.1
бітрейт: 448 кб/с

Субтитри:
мова: англійська
тип: програмні (м'які)
формат: *.srt
Info
General
Unique ID : 211413353461764060624099272560880656100 (0x9F0CBB1633D7BFE3B6854C54F47C1EE4)
Complete name : H:\Toloka\2018\Showtime (2002) 720p.
Format :
Format version : Version 4 / Version 2
File size : 3.03 GiB
Duration : 1 h 35 min
Overall bit rate : 4 548 kb/s
Encoded date : UTC 2018-07-18 07:33:08
Writing application : v6.1.0 ('Old Devil') built on Mar 4 2013 09:10:42
Writing library : libebml v1.3.0 + v1.4.0

Video
ID : 1
Format : AVC
Format/Info : Advanced Video Codec
Format profile : [email protected]
Format settings : 2 Ref Frames
Format settings, CABAC : No
Format settings, ReFrames : 2 frames
Format settings, GOP : N=1
Codec ID : V_MPEG4/ISO/AVC
Duration : 1 h 35 min
Bit rate : 3 817 kb/s
Width : 1 280 pixels
Height : 720 pixels
Display aspect ratio : 16:9
Frame rate mode : Constant
Frame rate : 23.976 FPS
Color space : YUV
Chroma subsampling : 4:2:0
Bit depth : 8 bits
Scan type : Progressive
Bits/(Pixel*Frame) : 0.173
Stream size : 2.54 GiB (84%)
Title : Showtime (2002) 720p
Language : English
Default : Yes
Forced : No
Color range : Limited
Color primaries : BT.709
Transfer characteristics : BT.709
Matrix coefficients : BT.709

Audio #1
ID : 2
Format : AC-3
Format/Info : Audio Coding 3
Codec ID : A_AC3
Duration : 1 h 35 min
Bit rate mode : Constant
Bit rate : 192 kb/s
Channel(s) : 2 channels
Channel positions : Front: L R
Sampling rate : 48.0 kHz
Frame rate : 31.250 FPS (1536 SPF)
Bit depth : 16 bits
Compression mode : Lossy
Stream size : 131 MiB (4%)
Title : UKR (ICTV, НТН, Новий)
Language : Ukrainian
Service kind : Complete Main
Default : Yes
Forced : Yes

Audio #2
ID : 3
Format : AC-3
Format/Info : Audio Coding 3
Codec ID : A_AC3
Duration : 1 h 35 min
Bit rate mode : Constant
Bit rate : 448 kb/s
Channel(s) : 6 channels
Channel positions : Front: L C R, Side: L R, LFE
Sampling rate : 48.0 kHz
Frame rate : 31.250 FPS (1536 SPF)
Bit depth : 16 bits
Compression mode : Lossy
Stream size : 306 MiB (10%)
Title : original
Language : English
Service kind : Complete Main
Default : No
Forced : No

Text
ID : 4
Format : UTF-8
Codec ID : S_TEXT/UTF8
Codec ID/Info : UTF-8 Plain Text
Language : English
Default : No
Forced : No

Menu
00:00:00.000 : en:Two cops at work.
00:04:28.000 : en:Suspicious activity.
00:08:28.000 : en:Guns and cuffs out.
00:11:42.000 : en:Camera unfriendly.
00:13:29.000 : en:The guy's a series.
00:16:09.000 : en:Star of the show.
00:20:12.000 : en:Anger for lunch.
00:22:53.000 : en:Street audition.
00:27:07.000 : en:Cool with Lazy Boy.
00:30:16.000 : en:TV cop's arsenal.
00:34:51.000 : en:Speech for speech.
00:37:33.000 : en:Crucial evidence.
00:40:36.000 : en:Surprise guy time.
00:43:40.000 : en:Auto show.
00:46:06.000 : en:Showtime.
00:52:01.000 : en:Justice Channel guy.
00:59:11.000 : en:Club Cuba Loca.
01:03:24.000 : en:Trey's Resume.
01:05:35.000 : en:Sympathetic decor.
01:07:25.000 : en:Cut to the chase.
01:11:53.000 : en:Good hood jumping.
01:13:36.000 : en:Broken apart.
01:17:14.000 : en:Face and voice recognition.
01:21:13.000 : en:Gun show gunplay.
01:24:10.000 : en:Shot by the camera.
01:27:08.000 : en:Wet and dry bondings
01:29:49.000 : en:Bloopers (Showtime).
01:31:17.000 : en:End Credits (Swingin).
Скріншоти






За запис з ТБ дякую пану Bohdan237
За українську доріжку подяка пану Arsenfpu
Особиста подяка пану denixx за надану матеріальну допомогу на підтримку цього і майбутніх релізів.
Джерело:


Срібний реліз (на рейтинг впливає 50% завантаженого)
 Трекер:    Зареєстрований   

Завантажити / скачати фільм українською



відео для новачків



 Зареєстрований:   2018-07-18 10:41
 Розмір:   3.03 GB 
 Оцінка фільму:   9/10 (Голосів: 4)
   
Інші релізи
   Шоу починається / Showtime (2002) 1080p [Open Matte] Ukr/Eng | Sub Eng MakRA  0 / 0   9.93 GB   2020-02-24 03:16 
   Шоу починається / Showtime (2002) Ukr/Eng Arsenfpu  3 / 0   1.46 GB   2018-07-18 08:27 
Ваш часовий пояс: GMT + 2 Години

Нова тема   Відповісти