Dronny Darko - Black Hive (2018) [] | Dark Ambient / Drone

Нові коментарі

Нова тема   Відповісти
Автор Повідомлення
kolpavel 
VIP


З нами з: 04.05.14
Востаннє: 16.01.19
Повідомлень: 1224

2018-07-18 06:27  
Dronny Darko - Black Hive (2018) [] | Dark Ambient / Drone

Dronny Darko - Black Hive (2018) [] | Dark Ambient / Drone


Стиль: Dark Ambient Drone
Країна, місто: Україна, Київ
Видавець: Cryo Chamber
Виконавці:
Олег Пузан
Пісні:
    01. Lurkers - 05:00
    02. Numinous - 07:00
    03. Devourer - 06:46
    04. Pale Shadows - 03:00
    05. The Knot of Time - 07:25
    06. Olympus - 05:55
    07. Rivers of Glass - 04:00
    08. Distorted Reflections - 04:14

Тривалість: 00:43:22
Мова: iнструментальнi композицii
Аудіо-кодек:
Бітрейт: 1138-1342 кб/с
Джерело: трекер
Додаткова інформація:
Лог
foobar2000 1.2.5 / Замер динамического диапазона (DR) 1.1.1
Дата отчёта: 2018-05-30 19:32:01

--------------------------------------------------------------------------------
Анализ: Dronny Darko / Black Hive
--------------------------------------------------------------------------------

DR Пики RMS Продолжительность трека
--------------------------------------------------------------------------------
DR9 -0.25 дБ -12.20 дБ 5:00 01-Lurkers
DR8 -0.25 дБ -9.77 дБ 7:00 02-Numinous
DR10 -0.25 дБ -13.65 дБ 6:46 03-Devourer
DR9 -0.25 дБ -12.60 дБ 3:00 04-Pale Shadows
DR10 -0.25 дБ -13.15 дБ 7:25 05-The Knot of Time
DR8 -0.25 дБ -11.73 дБ 5:56 06-Olympus
DR10 -0.25 дБ -13.02 дБ 4:00 07-Rivers of Glass
DR9 -0.25 дБ -12.47 дБ 4:14 08-Distorted Reflections
--------------------------------------------------------------------------------

Количество треков: 8
Реальные значения DR: DR9

Частота: 44100 Гц
Каналов: 2
Разрядность: 24
Битрейт: 1245 кбит/с
Кодек:
================================================================================
Спектри частот
Якщо Ви справді бажаєте підтримати українське - після прослуховування, якщо музика вам сподобалась, придбайте ліцензійний диск. Підтримаймо вітчизняних виконавців!


Фріліч (завантажене не впливає на рейтинг)
 Трекер:    Зареєстрований   

Завантажити / скачати українську музику



відео для новачків



 Зареєстрований:   2018-07-18 06:27
 Розмір:   405 MB 
 Оцінка музики:   10/10 (Голосів: 3)
   
Ваш часовий пояс: GMT + 2 Години

Нова тема   Відповісти