Дім шкереберть / Bringing Down the House (2003) 1080p Ukr/Eng | Sub Eng

Нові коментарі

Нова тема   Відповісти
Автор Повідомлення
Anonymous 







2018-07-16 21:52  
Дім шкереберть / Bringing Down the House (2003) 1080p Ukr/Eng | Sub Eng

Дім шкереберть / Bringing Down the House (2003) 1080p Ukr/Eng | Sub Eng


Жанр: комедія
Країна: США



Кінокомпанія: Hyde Park Films, Touchstone Pictures
Режисер: Адам Шенкман
Актори: Стів Мартін, Квін Латіфа, Юджин Леві, Джоан Пловрайт, Джин Смарт, Кімберлі Джей Браун, Ангус Т. Джоунс, Міссі Пайл, Майкл Розенбаум, Бетті Вайт

Сюжет:
Немолодий самотній чоловік знайомиться з жінкою через Інтернет і призначає їй побачення. Звідки йому знати, що замість милої соромливої красуні він зіткнеться з пишнотілою, грубою і невихованою афроамериканкою, до того ж вона втекла з в'язниці, а зараз явно збирається перевернути його налагоджене, розмірене життя шкереберть.


Тривалість: 01:45:13
Якість: 1080p
Відео:
кодек:
розмір кадру: 1920х824
бітрейт: 8 888 кб/с

Аудіо # 1:
мова: українська
переклад: багатоголосий закадровий |
кодек: 2.0
бітрейт: 192 кб/с

Аудіо # 2:
мова: англійська
переклад: оригінал
кодек: 5.1
бітрейт: 1509 кб/с

Субтитри:
мова: англійська
тип: програмні (м'які)
формат: *.srt
Info
General
Unique ID : 253089371737058662259309767223153650212 (0xBE673D6E3EB91D3692B1FA09210DEA24)
Format :
Format version : Version 4 / Version 2
File size : 7.78 GiB
Duration : 1 h 45 min
Overall bit rate : 10.6 Mb/s
Encoded date : UTC 2018-07-16 18:43:26
Writing application : v6.1.0 ('Old Devil') built on Mar 4 2013 09:10:42
Writing library : libebml v1.3.0 + v1.4.0

Video
ID : 1
Format : AVC
Format/Info : Advanced Video Codec
Format profile : [email protected]
Format settings : CABAC / 5 Ref Frames
Format settings, CABAC : Yes
Format settings, ReFrames : 5 frames
Codec ID : V_MPEG4/ISO/AVC
Duration : 1 h 45 min
Bit rate : 8 888 kb/s
Width : 1 920 pixels
Height : 824 pixels
Display aspect ratio : 2.35:1
Frame rate mode : Constant
Frame rate : 23.976 (24000/1001) FPS
Color space : YUV
Chroma subsampling : 4:2:0
Bit depth : 8 bits
Scan type : Progressive
Bits/(Pixel*Frame) : 0.234
Stream size : 6.38 GiB (82%)
Writing library : core 122 r2184 5c85e0a
Encoding settings : cabac=1 / ref=5 / deblock=1:0:0 / analyse=0x3:0x113 / me=umh / subme=8 / psy=1 / psy_rd=1.00:0.00 / mixed_ref=1 / me_range=16 / chroma_me=1 / trellis=1 / 8x8dct=1 / cqm=0 / deadzone=21,11 / fast_pskip=1 / chroma_qp_offset=-2 / threads=12 / sliced_threads=0 / nr=0 / decimate=1 / interlaced=0 / bluray_compat=0 / constrained_intra=0 / bframes=3 / b_pyramid=2 / b_adapt=2 / b_bias=0 / direct=3 / weightb=1 / open_gop=0 / weightp=2 / keyint=240 / keyint_min=24 / scenecut=40 / intra_refresh=0 / rc_lookahead=50 / rc=2pass / mbtree=1 / bitrate=8888 / ratetol=1.0 / qcomp=0.60 / qpmin=0 / qpmax=69 / qpstep=4 / cplxblur=20.0 / qblur=0.5 / ip_ratio=1.40 / aq=1:1.00
Language : English
Default : Yes
Forced : No

Audio #1
ID : 2
Format : AC-3
Format/Info : Audio Coding 3
Codec ID : A_AC3
Duration : 1 h 45 min
Bit rate mode : Constant
Bit rate : 192 kb/s
Channel(s) : 2 channels
Channel positions : Front: L R
Sampling rate : 48.0 kHz
Frame rate : 31.250 FPS (1536 SPF)
Bit depth : 16 bits
Compression mode : Lossy
Stream size : 144 MiB (2%)
Title : UKR (K1)
Language : Ukrainian
Service kind : Complete Main
Default : Yes
Forced : Yes

Audio #2
ID : 3
Format :
Format/Info : Digital Theater Systems
Codec ID : A_DTS
Duration : 1 h 45 min
Bit rate mode : Constant
Bit rate : 1 509 kb/s
Channel(s) : 6 channels
Channel positions : Front: L C R, Side: L R, LFE
Sampling rate : 48.0 kHz
Frame rate : 93.750 FPS (512 SPF)
Bit depth : 24 bits
Compression mode : Lossy
Stream size : 1.11 GiB (14%)
Language : English
Default : No
Forced : No

Text
ID : 4
Format : UTF-8
Codec ID : S_TEXT/UTF8
Codec ID/Info : UTF-8 Plain Text
Title : ENG
Language : English
Default : No
Forced : No

Menu
00:00:00.000 : en:00:00:00.000
00:09:43.333 : en:00:09:43.333
00:19:03.642 : en:00:19:03.642
00:28:37.215 : en:00:28:37.215
00:39:54.392 : en:00:39:54.392
00:45:02.116 : en:00:45:02.116
00:53:39.174 : en:00:53:39.174
01:06:31.905 : en:01:06:31.905
01:16:32.755 : en:01:16:32.755
01:20:51.096 : en:01:20:51.096
01:23:06.273 : en:01:23:06.273
01:35:52.163 : en:01:35:52.163
Скріншоти





За українську доріжку подяка п. kicyunya
Особиста подяка пану denixx за надану матеріальну допомогу на підтримку цього і майбутніх релізів.
Джерело:


Срібний реліз (на рейтинг впливає 50% завантаженого)
 Трекер:    Зареєстрований   

Завантажити / скачати фільм українською



відео для новачків



 Зареєстрований:   2018-07-16 21:52
 Розмір:   7.78 GB 
 Оцінка фільму:   10/10 (Голосів: 1)
   
Інші релізи
Ваш часовий пояс: GMT + 2 Години

Нова тема   Відповісти