Код да Вінчі [Театральна версія] / The Da Vinci Code [Theatrical Cut] (2006) UHD Remux 2160p 4K HDR H.265 Ukr/Eng | Sub Eng

Нові коментарі

Нова тема   Відповісти
Останній раз роздавалося comixyar (2019-06-17)
Автор Повідомлення
boroznaya 
Попереджень: 1
Попереджень: 1 


З нами з: 02.11.12
Востаннє: 17.06.19
Повідомлень: 2963

2018-07-16 20:56  
Код да Вінчі [Театральна версія] / The Da Vinci Code [Theatrical Cut] (2006) UHD Remux 2160p 4K HDR H.265 Ukr/Eng | Sub Eng

Код да Вінчі [Театральна версія] / The Da Vinci Code [Theatrical Cut] (2006) UHD Remux 2160p 4K HDR H.265 Ukr/Eng | Sub Eng
Альтернативні постери







Жанр: трилер, драма, детектив, містика, екранізація
Країна: США, Мальта, Франція, Велика Британія



Кінокомпанія: Columbia Pictures, Imagine Entertainment, Skylark Productions
Режисер: Рон Говард
Актори: Том Генкс, Одрі Тоту, Жан Рено, Пол Беттані, Ієн Маккеллен, Альфред Моліна, Юрген Прохнов, Жан-Ів Бертело, Етьен Шіко, Жан-П'єр Мар'єль, Ріта Дейвіс, Франческо Карнелутті, Сет Гейбл, Фаусто Марія Шіараппа, Джо Гроссі, Деніс Подалідес, Гаррі Тейлор, Дейзі Дойдж-Хілл, Тоніо Десканвей, Девід Барк-Джоунс, Девід Саракіно, Ів Обер, Дез Даммонд, Г'ю Мітчелл, Тіна Мескелл, Марі-Франсуа Одоллент, Пітер Педреро, Агата Натансон, Енді Робб, Шейн Заза, Крістофер Фош, Ендрю Кларк, Арно Клейн, Даффер Лабідін, Майкл Нортон, Норман Кемпбелл Рііс, Клів Картер, Меттью Батлер

Сюжет:
У Луврі знаходять поцяткований знаками труп куратора музею Жака Соньєра. На місце події прибувають фахівець з релігійних символів, професор Роберт Ленгдон, комісар поліції Фаш і співробітниця місцевого шифрувального відділу Софі Неві. Тут з'ясовується, що підозра вже впала на Ленгдона, і вони разом із Софі, яка виявилась онукою вбитого, тікають з місця злочину. За допомогою завбачливо залишених дідом ключів дівчина знаходить пристрій під назвою криптекс, в якому захована таємниця Священного Грааля і за яким полює монах Сайлас, посланець Ради Тіней. Мета Ради - знищити всіх послідовників Ісуса Христа. Екранізація за романом Дена Брауна.


Тривалість: 02:28:46 [Театральна версія, ]
Якість: UHD Remux 2160p [10th Anniversary Edition]
Відео:
кодек: H.265 (HEVC)
розмір кадру: 3840x2160
бітрейт: 43,7 Mб/с
бітова глибина: 10 біт
кольоровий простір: BT.2020 (HDR)

Аудіо # 1:
мова: українська
переклад: багатоголосий закадровий
кодек: 2.0
бітрейт: 192 кб/с
Інформація про озвучення
Ролі озвучили: Володимир Терещук, Юрій Гребельник, Дмитро Терещук.
Аудіо # 2:
мова: англійська
переклад: оригінал
кодек: TrueHD+Atmos 7.1
бітрейт: 4146 кб/с

Субтитри # 1-2: [повні, SDH]
мова: англійська
тип: програмні (м'які)
формат: *.srt
Info
Код:
[b]General[/b]
Unique ID                   : 155566995157032848821768144552776992127 (0x75091D09F414525517DC1C511220857F)
Complete name               : D:\Фільми\Готові релізи\The Da Vinci Code [Remastered Theatrical Cut] (2006) [Ukr, Eng, sub. 2xEng] Remux 2160p. 4K. UltraHD. HEVC. HDR [Hurtom] by Zhuk_Mikola.
Format                      :
Format version              : Version 4 / Version 2
File size                   : 50.0 GiB
Duration                    : 2 h 28 min
Overall bit rate mode       : Variable
Overall bit rate            : 48.1 Mb/s
Encoded date                : UTC 2018-07-16 15:57:21
Writing application         : v20.0.0 ('I Am The Sun') 64-bit
Writing library             : libebml v1.3.5 + v1.4.8

[b]Video[/b]
ID                          : 1
Format                      : HEVC
Format/Info                 : High Efficiency Video Coding
Commercial name             : HDR10
Format profile              : Main [email protected]@High
Codec ID                    : V_MPEGH/ISO/HEVC
Duration                    : 2 h 28 min
Bit rate                    : 43.7 Mb/s
Width                       : 3 840 pixels
Height                      : 2 160 pixels
Display aspect ratio        : 16:9
Frame rate mode             : Constant
Frame rate                  : 23.976 (24000/1001) FPS
Color space                 : YUV
Chroma subsampling          : 4:2:0 (Type 2)
Bit depth                   : 10 bits
Bits/(Pixel*Frame)          : 0.220
Stream size                 : 45.4 GiB (91%)
Language                    : English
Default                     : Yes
Forced                      : No
Color range                 : Limited
Color primaries             : BT.2020
Transfer characteristics    : PQ
Matrix coefficients         : BT.2020 non-constant
Mastering display color pri : Display P3
Mastering display luminance : min: 0.0050 cd/m2, max: 4000 cd/m2
Maximum Content Light Level : 4897 cd/m2
Maximum Frame-Average Light : 653 cd/m2

[b]Audio #1[/b]
ID                          : 2
Format                      : AC-3
Format/Info                 : Audio Coding 3
Codec ID                    : A_AC3
Duration                    : 2 h 28 min
Bit rate mode               : Constant
Bit rate                    : 192 kb/s
Channel(s)                  : 2 channels
Channel positions           : Front: L R
Sampling rate               : 48.0 kHz
Frame rate                  : 31.250 FPS (1536 SPF)
Bit depth                   : 16 bits
Compression mode            : Lossy
Stream size                 : 204 MiB (0%)
Title                       : Багатоголосий закадровий, ICTV
Language                    : Ukrainian
Service kind                : Complete Main
Default                     : Yes
Forced                      : No

[b]Audio #2[/b]
ID                          : 3
Format                      : TrueHD
Format profile              : TrueHD+Atmos / TrueHD
Codec ID                    : A_TRUEHD
Duration                    : 2 h 28 min
Bit rate mode               : Variable
Bit rate                    : 4 146 kb/s
Maximum bit rate            : 7 722 kb/s
Channel(s)                  : Object Based / 8 channels
Channel positions           : Object Based / Front: L C R, Side: L R, Back: L R, LFE
Sampling rate               :  / 48.0 kHz
Frame rate                  : 1 200.000 FPS (40 SPF)
Compression mode            : Lossless
Stream size                 : 4.31 GiB (9%)
Language                    : English
Default                     : No
Forced                      : No

[b]Text #1[/b]
ID                          : 4
Format                      : UTF-8
Codec ID                    : S_TEXT/UTF8
Codec ID/Info               : UTF-8 Plain Text
Duration                    : 2 h 18 min
Bit rate                    : 52 b/s
Count of elements           : 1649
Stream size                 : 53.6 KiB (0%)
Title                       : Full
Language                    : English
Default                     : No
Forced                      : No

[b]Text #2[/b]
ID                          : 5
Format                      : UTF-8
Codec ID                    : S_TEXT/UTF8
Codec ID/Info               : UTF-8 Plain Text
Duration                    : 2 h 24 min
Bit rate                    : 55 b/s
Count of elements           : 1874
Stream size                 : 58.8 KiB (0%)
Title                       : SDH
Language                    : English
Default                     : No
Forced                      : No
Скріншоти




Налаштування коректного перегляду 4K HDR на ПК (PotPlayer + madVR):
Подяка пану slavik_v_z за запис звуку з ТБ, пану Gelios за синхронізацію аудіодоріжки, пану Zhuk_Mikola за українізовану обкладинку, панам Gelios та Воїн за українізовані постери!

Джерело: &
Особиста оцінка: 10 - без зайвих вагань рекомендую всім!
Над релізом працював -
Не забуваємо подякувати релізеру!


Золотий реліз (завантажене не впливає на рейтинг)
 Трекер:    Зареєстрований   

Завантажити / скачати фільм українською



відео для новачків



 Зареєстрований:   2018-07-21 09:49
 Розмір:   49.99 GB 
 Оцінка фільму:   9.1/10 (Голосів: 11)
   
mr. blef 
Частий відвідувач


З нами з: 26.02.18
Востаннє: 17.06.19
Повідомлень: 41

2018-07-16 21:45  
Нічого собі! Один з моїх улюблених фільмів, та ще й в такій якості!!!
Хм, шкода тільки, що ні на чому подивитись ... Ремукса театралки не знайдеться?

[email protected] 
Відео Гуртом - підтримка та поширення
Відео Гуртом - підтримка та поширення


З нами з: 16.06.12
Востаннє: 16.06.19
Повідомлень: 1280

2018-07-17 14:55  
Чекаю релізу
bot 
робот


З нами з: 30.09.07
Востаннє: 26.05.05
Повідомлень: 21519

2018-07-21 09:10  
Тему перенесено з Анонси релізів до форуму Фільми в HD


boroznaya

boroznaya 
Попереджень: 1
Попереджень: 1 


З нами з: 02.11.12
Востаннє: 17.06.19
Повідомлень: 2963

2018-07-21 10:26  
Фільм "Код да Вінчі" на роздачі!
Приємного перегляду, Гуртомівці!

ivic4u 
Новенький


З нами з: 27.11.17
Востаннє: 16.06.19
Повідомлень: 8

2018-08-16 23:19  
Дякуємо!!!
Ваш часовий пояс: GMT + 2 Години

Нова тема   Відповісти