Острів Головорізів / Cutthroat Island (1995) Remux 1080p 2xUkr/Eng | Sub Ukr/Eng

Нові коментарі

Нова тема   Відповісти
Автор Повідомлення
staf777 
Відео Гуртом - підтримка та поширення
Відео Гуртом - підтримка та поширення


З нами з: 16.11.16
Востаннє: 28.09.20
Повідомлень: 4062

2018-07-16 18:54  
Острів Головорізів / Cutthroat Island (1995) Remux 1080p 2xUkr/Eng | Sub Ukr/Eng

Острів Головорізів / Cutthroat Island (1995) Remux 1080p 2xUkr/Eng | Sub Ukr/Eng


Жанр: екшн, пригодницький, комедія, сімейний, романтичний
Країна: США, Франція, Італія, Німеччина



Кінокомпанія: Beckner/Gorman Productions, Canal+, Carolco Pictures
Режисер: Ренні Гарлін (Renny Harlin)
Актори: Джина Девіс (Geena Davis), Метью Модайн (Matthew Modine), Френк Ланджелла (Frank Langella), Морі Чайкін (Maury Chaykin), Патрік Малахайд (Patrick Malahide), Стен Шоу (Stan Shaw), Рекс Лінн (Rex Linn), Пол Діллон (Paul Dillon), Крістофер Мастерсон (Christopher Masterson), Джиммі Ф. Сагс (Jimmie F. Skaggs), Харріс Юлін (Harris Yulin), Карл Чейз (Carl Chase), Петер Джівз (Peter Geeves), Ангус Райт (Angus Wright), Кен Бонес (Ken Bones), Мері Пеглер (Mary Pegler), Мері Піч (Mary Peach), Люсінда Клер (Lucinda Clare), Томас Локйер (Thomas Lockyer), Роджер Буз (Roger Booth), Джордж Мерселл (George Murcell), Саймон Атертон (Simon Atherton), Дікі Бір (Dickey Beer), Крістофер Холлідей (Christopher Halliday), Кріс Джонстон (Chris Johnston), Річард Ліф (Richard Leaf), Там Вайт (Tam White), Шайна Манкі (Shayna the Monkey), Руперт Вансіттарт (Rupert Vansittart), Нік Бартлетт (Nick Bartlett), Девід Бейлі (David Bailie), Квейм Квей-Армах (Kwame Kwei-Armah), Крістофер Адамсон (Christopher Adamson), Рамон Тікарам (Ramon Tikaram), Тор (Thor), Фінстер (Finster), Ренні Харлін (Renny Harlin)

Сюжет:
Відважна дочка пірата Морган Едамс прагне помститися за свого батька, який загинув від рук власного брата. Їй дісталася у спадок третина карти Острову Головорізів з позначенням місця, де заховані великі скарби. Щоб дістатися до них, Морган набирає команду зі старих бойових товаришів батька.

На аукціоні рабів у Порт-Ройалі на Ямайці вона купує авантюриста й пройдисвіта Вільяма Шоу, у якого виявляється друга частина карти. Але головна проблема в тому, що остання частина карти знаходиться у злого й підступного дядька Морган - пірата на прізвисько «Дог» ...


Тривалість: 02:04:32
Якість: Remux 1080p
Відео:
кодек:
розмір кадру: 1920x1080
бітрейт: 17,5 Mб/с

Аудіо # 1:
мова: українська
переклад: багатоголосий закадровий
кодек: 5.1
бітрейт: 448 кб/с

Аудіо # 2:
мова: українська
переклад: багатоголосий закадровий
кодек: 5.1
бітрейт: 448 кб/с

Аудіо # 3:
мова: англійська
переклад: оригінал
кодек: -HD MA 7.1
бітрейт: 3072 кб/с

Аудіо # 4:
мова: англійська
переклад: коментарі режисера Ренні Гарліна
кодек: 2.0
бітрейт: 192 кб/с

Субтитри:
мова: українська
тип: програмні (м'які)
формат: *.srt
переклад: з російської urij546724

Субтитри:
мова: англійська
тип: пререндерні
формат: *.pgs
Info
General
Unique ID : 264115101335188758307814809474878697567 (0xC6B2B7DEBFC26A24B1A283D87C70705F)
Complete name : H:\» HD українською » Фільми в HD\Пригодницький\Cutthroat Island (1995) Remux 1080p[2xUKR_ENG] [Hurtom].
Format :
Format version : Version 4 / Version 2
File size : 18.8 GiB
Duration : 2 h 4 min
Overall bit rate mode : Variable
Overall bit rate : 21.6 Mb/s
Movie name : Cutthroat Island (1995) Remux 1080p[2xUKR_ENG] [Hurtom]
Encoded date : UTC 2018-07-16 15:52:40
Writing application : v24.0.0 ('Beyond The Pale') 64-bit
Writing library : libebml v1.3.6 + v1.4.9
Cover : Yes
Attachments : cover.jpg

Video
ID : 1
Format : AVC
Format/Info : Advanced Video Codec
Format profile : [email protected]
Format settings : CABAC / 4 Ref Frames
Format settings, CABAC : Yes
Format settings, ReFrames : 4 frames
Format settings, GOP : M=3, N=12
Codec ID : V_MPEG4/ISO/AVC
Duration : 2 h 4 min
Bit rate mode : Variable
Bit rate : 17.5 Mb/s
Maximum bit rate : 37.0 Mb/s
Width : 1 920 pixels
Height : 1 080 pixels
Display aspect ratio : 16:9
Frame rate mode : Constant
Frame rate : 23.976 (24000/1001) FPS
Color space : YUV
Chroma subsampling : 4:2:0
Bit depth : 8 bits
Scan type : Progressive
Bits/(Pixel*Frame) : 0.352
Stream size : 15.2 GiB (81%)
Default : Yes
Forced : No
Color range : Limited
Color primaries : BT.709
Transfer characteristics : BT.709
Matrix coefficients : BT.709

Audio #1
ID : 2
Format : AC-3
Format/Info : Audio Coding 3
Codec ID : A_AC3
Duration : 2 h 4 min
Bit rate mode : Constant
Bit rate : 448 kb/s
Channel(s) : 6 channels
Channel positions : Front: L C R, Side: L R, LFE
Sampling rate : 48.0 kHz
Frame rate : 31.250 FPS (1536 SPF)
Bit depth : 16 bits
Compression mode : Lossy
Stream size : 399 MiB (2%)
Title : [UA-MVO-1+1]
Language : Ukrainian
Service kind : Complete Main
Default : Yes
Forced : Yes

Audio #2
ID : 3
Format : AC-3
Format/Info : Audio Coding 3
Codec ID : A_AC3
Duration : 2 h 4 min
Bit rate mode : Constant
Bit rate : 448 kb/s
Channel(s) : 6 channels
Channel positions : Front: L C R, Side: L R, LFE
Sampling rate : 48.0 kHz
Frame rate : 31.250 FPS (1536 SPF)
Bit depth : 16 bits
Compression mode : Lossy
Stream size : 399 MiB (2%)
Title : [UA-MVO-ICTV]
Language : Ukrainian
Service kind : Complete Main
Default : No
Forced : No

Audio #3
ID : 4
Format :
Format/Info : Digital Theater Systems
Format profile : MA / Core
Codec ID : A_DTS
Duration : 2 h 4 min
Bit rate mode : Variable / Constant
Bit rate : 3 072 kb/s / 1 509 kb/s
Channel(s) : 8 channels / 6 channels
Channel positions : Front: L C R, Side: L R, Back: L R, LFE / Front: L C R, Side: L R, LFE
Sampling rate : 48.0 kHz
Frame rate : 93.750 FPS (512 SPF)
Bit depth : 16 bits
Compression mode : Lossless / Lossy
Stream size : 2.65 GiB (14%)
Language : English
Default : No
Forced : No

Audio #4
ID : 5
Format : AC-3
Format/Info : Audio Coding 3
Codec ID : A_AC3
Duration : 2 h 4 min
Bit rate mode : Constant
Bit rate : 192 kb/s
Channel(s) : 2 channels
Channel positions : Front: L R
Sampling rate : 48.0 kHz
Frame rate : 31.250 FPS (1536 SPF)
Bit depth : 16 bits
Compression mode : Lossy
Stream size : 171 MiB (1%)
Language : English
Service kind : Complete Main
Default : No
Forced : No

Text #1
ID : 6
Format : UTF-8
Codec ID : S_TEXT/UTF8
Codec ID/Info : UTF-8 Plain Text
Duration : 1 h 57 min
Bit rate : 68 b/s
Count of elements : 970
Stream size : 58.7 KiB (0%)
Language : Ukrainian
Default : No
Forced : No

Text #2
ID : 7
Format : PGS
Muxing mode : zlib
Codec ID : S_HDMV/PGS
Codec ID/Info : Picture based subtitle format used on BDs/HD-DVDs
Duration : 1 h 56 min
Bit rate : 25.2 kb/s
Count of elements : 2410
Stream size : 21.0 MiB (0%)
Language : English
Default : No
Forced : No
Скріншоти




Подяка: панам gig_Panas і ua2004 за запис звуку з ТБ, пану urij546724 за синхронізацію доріжок, пану thefir за українізацію постера.
Джерело: &
Особиста оцінка: 8 - мені сподобалося


Золотий реліз (завантажене не впливає на рейтинг)
 Трекер:    Зареєстрований   

Завантажити / скачати фільм українською



відео для новачків



 Зареєстрований:   2018-07-16 21:55
 Розмір:   18.81 GB 
 Оцінка фільму:   9.1/10 (Голосів: 12)
   
bot 
робот


З нами з: 30.09.07
Востаннє: 26.05.05
Повідомлень: 25643

2018-07-16 21:55  
Тему перенесено з Анонси релізів до форуму Фільми в HD


staf777

Ваш часовий пояс: GMT + 2 Години

Нова тема   Відповісти