8 мільйонів способів померти / 8 million ways to die (1986) 720p Ukr/Eng | Sub Eng

Нові коментарі

Нова тема   Відповісти
Автор Повідомлення
Anonymous 







2018-07-15 14:58  
8 мільйонів способів померти / 8 million ways to die (1986) 720p Ukr/Eng | Sub Eng

8 мільйонів способів померти / 8 million ways to die (1986) 720p Ukr/Eng | Sub Eng


Жанр: екшн, пригодницький, кримінальний, трилер
Країна: США



Кінокомпанія: Producers Sales Organization (PSO)
Режисер: Хел Ешбі
Актори: Джефф Бріджес, Розанна Аркетт, Александра Пол, Енді Гарсіа

Сюжет:
Скаддер — детектив в департаменті шерифа. Під час чергового наркорейду він вимушений застрелити людину. Переживаючи з приводу цього інциденту, Скаддер починає багато пити, і через це його звільняють з роботи і розпадається його шлюб. Під час лікування у Спілці Анонімних Алкоголіків він зустрічає таємничу незнайомку. Намагаючись допомогти цій жінці, він занурюється в світ проституції і наркотиків для того, щоб знайти вбивцю. Під час розслідування він постійно знаходиться на межі нового попадання в алкогольну залежність.


Тривалість: 01:55:27
Якість:
Відео:
кодек:
розмір кадру: 1280х720
бітрейт: 10 000 кб/с

Аудіо # 1:
мова: українська
переклад: двоголосий закадровий | (студія Старий Майстер)
кодек: 2.0
бітрейт: 192 кб/с

Аудіо # 2:
мова: англійська
переклад: оригінал
кодек: 2.0
бітрейт: 640 кб/с

Субтитри:
мова: англійська
тип: програмні (м'які)
формат: *.srt
Info
General
Unique ID : 247525995056770398556171006411135098781 (0xBA37C5C86B6109DD9A8FD2B631F59F9D)
Format :
Format version : Version 4 / Version 2
File size : 8.73 GiB
Duration : 1 h 55 min
Overall bit rate : 10.8 Mb/s
Encoded date : UTC 2018-07-15 11:50:17
Writing application : v6.1.0 ('Old Devil') built on Mar 4 2013 09:10:42
Writing library : libebml v1.3.0 + v1.4.0

Video
ID : 1
Format : AVC
Format/Info : Advanced Video Codec
Format profile : [email protected]
Format settings : CABAC / 9 Ref Frames
Format settings, CABAC : Yes
Format settings, ReFrames : 9 frames
Codec ID : V_MPEG4/ISO/AVC
Duration : 1 h 55 min
Bit rate : 10 000 kb/s
Width : 1 280 pixels
Height : 720 pixels
Display aspect ratio : 16:9
Frame rate mode : Constant
Frame rate : 23.976 (24000/1001) FPS
Color space : YUV
Chroma subsampling : 4:2:0
Bit depth : 8 bits
Scan type : Progressive
Bits/(Pixel*Frame) : 0.453
Stream size : 7.89 GiB (90%)
Title : 8.Million.Ways.to.Die.1986..720p
Writing library : core 148 r2744 b97ae06
Encoding settings : cabac=1 / ref=9 / deblock=1:-3:-3 / analyse=0x3:0x133 / me=umh / subme=10 / psy=1 / psy_rd=1.05:0.15 / mixed_ref=1 / me_range=32 / chroma_me=1 / trellis=2 / 8x8dct=1 / cqm=0 / deadzone=21,11 / fast_pskip=0 / chroma_qp_offset=-3 / threads=3 / lookahead_threads=1 / sliced_threads=0 / nr=0 / decimate=1 / interlaced=0 / bluray_compat=0 / constrained_intra=0 / bframes=11 / b_pyramid=2 / b_adapt=2 / b_bias=0 / direct=3 / weightb=1 / open_gop=0 / weightp=2 / keyint=240 / keyint_min=23 / scenecut=40 / intra_refresh=0 / rc_lookahead=40 / rc=2pass / mbtree=1 / bitrate=10000 / ratetol=1.0 / qcomp=0.60 / qpmin=10 / qpmax=51 / qpstep=4 / cplxblur=20.0 / qblur=0.5 / vbv_maxrate=50000 / vbv_bufsize=62500 / nal_hrd=none / filler=0 / ip_ratio=1.40 / aq=1:1.00
Default : Yes
Forced : No
Statistics Tags Issue : v12.0.0 ('Trust / Lust') 32bit 2017-07-25 16:39:40 / v6.1.0 ('Old Devil') built on Mar 4 2013 09:10:42 2018-07-15 11:50:17
FromStats_BitRate : 9996682
FromStats_Duration : 01:55:26.670000000
FromStats_FrameCount : 166074
FromStats_StreamSize : 8655465141

Audio #1
ID : 2
Format : AC-3
Format/Info : Audio Coding 3
Codec ID : A_AC3
Duration : 1 h 55 min
Bit rate mode : Constant
Bit rate : 192 kb/s
Channel(s) : 2 channels
Channel positions : Front: L R
Sampling rate : 48.0 kHz
Frame rate : 31.250 FPS (1536 SPF)
Bit depth : 16 bits
Compression mode : Lossy
Stream size : 159 MiB (2%)
Title : UKR (Kino)
Language : Ukrainian
Service kind : Complete Main
Default : Yes
Forced : Yes

Audio #2
ID : 3
Format : AC-3
Format/Info : Audio Coding 3
Codec ID : A_AC3
Duration : 1 h 55 min
Bit rate mode : Constant
Bit rate : 640 kb/s
Channel(s) : 2 channels
Channel positions : Front: L R
Sampling rate : 48.0 kHz
Frame rate : 31.250 FPS (1536 SPF)
Bit depth : 16 bits
Compression mode : Lossy
Stream size : 528 MiB (6%)
Title : ENG
Language : English
Service kind : Complete Main
Default : No
Forced : No
Statistics Tags Issue : v12.0.0 ('Trust / Lust') 32bit 2017-07-25 16:39:40 / v6.1.0 ('Old Devil') built on Mar 4 2013 09:10:42 2018-07-15 11:50:17
FromStats_BitRate : 640000
FromStats_Duration : 01:55:26.688000000
FromStats_FrameCount : 216459
FromStats_StreamSize : 554135040

Text
ID : 4
Format : UTF-8
Codec ID : S_TEXT/UTF8
Codec ID/Info : UTF-8 Plain Text
Title : ENG
Language : English
Default : Yes
Forced : No

Menu
00:00:00.000 : en:Chapter 1
00:11:34.819 : en:Chapter 2
00:21:03.554 : en:Chapter 3
00:34:56.219 : en:Chapter 4
00:49:43.314 : en:Chapter 5
01:08:37.280 : en:Chapter 6
01:24:25.394 : en:Chapter 7
01:44:14.498 : en:Chapter 8
Скріншоти





Звук від Hulk1987, постер від Givi_мол., за що їм велика подяка.
Особиста подяка пану denixx за надану матеріальну допомогу на підтримку цього і майбутніх релізів.
Джерело:


Срібний реліз (на рейтинг впливає 50% завантаженого)
 Трекер:    Зареєстрований   

Завантажити / скачати фільм українською



відео для новачків



 Зареєстрований:   2018-07-15 14:58
 Розмір:   8.73 GB 
 Оцінка фільму:   10/10 (Голосів: 4)
   
Інші релізи
rudder1992 
Свій


З нами з: 26.02.17
Востаннє: 19.04.19
Повідомлень: 89

2019-02-05 23:36  
будь ласка станьте хтось на роздачу!!!)

Додано через 29 секунд:

rudder1992
фільм просто бомбезний!

Ваш часовий пояс: GMT + 2 Години

Нова тема   Відповісти