48 годин / 48 Hrs. (1982) 720p Ukr/Eng | Sub Eng

Нові коментарі

Нова тема   Відповісти
Автор Повідомлення
Anonymous 







2018-07-15 14:13  
48 годин / 48 Hrs. (1982) 720p Ukr/Eng | Sub Eng

48 годин / 48 Hrs. (1982) 720p Ukr/Eng | Sub Eng


Жанр: бойовик, кримінальний, комедія, трилер
Країна: США



Кінокомпанія: Paramount Pictures
Режисер: Волтер Гілл
Актори: Нік Нолті, Едді Мерфі, Аннетт О’Тул, Френк МакРей, Джеймс Рімар, Девід Патрік Келлі, Сонні Лендем, Брайон Джеймс, Керрі Шерман, Джонатан Бенкс

Сюжет:
Герой Ніка Нолті - суворий детектив, який переслідує двох злочинців, які вбили поліцейського. Але він не може впоратися із завданням без допомоги тямущого, але легковажного напарника, який відбуває термін за крадіжку півмільйона доларів. Вимушені партнери, м'яко кажучи, насилу знаходять спільну мову, та й цілі у них різні: перший жадає помститися покидькам, а другий спить і бачить, як отримати свої грошики й на додачу одну дуже апетитну кралечку.


Тривалість: 01:36:37
Якість: 720p
Відео:
кодек:
розмір кадру: 1280х720
бітрейт: 4 941 кб/с

Аудіо # 1:
мова: українська
переклад: багатоголосий закадровий | ,
кодек: 2.0
бітрейт: 192 кб/с

Аудіо # 2:
мова: англійська
переклад: оригінал
кодек: 5.1
бітрейт: 448 кб/с

Субтитри:
мова: англійська
тип: програмні (м'які)
формат: *.srt
Info
General
Unique ID : 253960783334808431594565484492027021312 (0xBF0F1156EA0594B396FFE3670EAB4800)
Format :
Format version : Version 4 / Version 2
File size : 3.77 GiB
Duration : 1 h 36 min
Overall bit rate : 5 583 kb/s
Encoded date : UTC 2018-07-15 11:03:32
Writing application : v6.1.0 ('Old Devil') built on Mar 4 2013 09:10:42
Writing library : libebml v1.3.0 + v1.4.0

Video
ID : 1
Format : AVC
Format/Info : Advanced Video Codec
Format profile : [email protected]
Format settings : CABAC / 9 Ref Frames
Format settings, CABAC : Yes
Format settings, ReFrames : 9 frames
Codec ID : V_MPEG4/ISO/AVC
Duration : 1 h 36 min
Bit rate : 4 941 kb/s
Width : 1 280 pixels
Height : 720 pixels
Display aspect ratio : 16:9
Frame rate mode : Constant
Frame rate : 23.976 (24000/1001) FPS
Color space : YUV
Chroma subsampling : 4:2:0
Bit depth : 8 bits
Scan type : Progressive
Bits/(Pixel*Frame) : 0.224
Stream size : 3.26 GiB (87%)
Writing library : core 146 r2538 121396c
Encoding settings : cabac=1 / ref=9 / deblock=1:-3:-3 / analyse=0x3:0x133 / me=umh / subme=11 / psy=1 / psy_rd=1.02:0.10 / mixed_ref=1 / me_range=32 / chroma_me=1 / trellis=2 / 8x8dct=1 / cqm=0 / deadzone=21,11 / fast_pskip=0 / chroma_qp_offset=-3 / threads=12 / lookahead_threads=3 / sliced_threads=0 / nr=0 / decimate=0 / interlaced=0 / bluray_compat=0 / constrained_intra=0 / bframes=9 / b_pyramid=2 / b_adapt=2 / b_bias=0 / direct=3 / weightb=1 / open_gop=0 / weightp=2 / keyint=240 / keyint_min=23 / scenecut=40 / intra_refresh=0 / rc=2pass / mbtree=0 / bitrate=4941 / ratetol=1.0 / qcomp=0.60 / qpmin=0 / qpmax=69 / qpstep=4 / cplxblur=20.0 / qblur=0.5 / ip_ratio=1.40 / pb_ratio=1.30 / aq=3:0.90
Language : English
Default : Yes
Forced : No

Audio #1
ID : 2
Format : AC-3
Format/Info : Audio Coding 3
Codec ID : A_AC3
Duration : 1 h 36 min
Bit rate mode : Constant
Bit rate : 192 kb/s
Channel(s) : 2 channels
Channel positions : Front: L R
Sampling rate : 48.0 kHz
Frame rate : 31.250 FPS (1536 SPF)
Bit depth : 16 bits
Compression mode : Lossy
Stream size : 133 MiB (3%)
Title : UKR (Inter, ICTV)
Language : Ukrainian
Service kind : Complete Main
Default : Yes
Forced : Yes

Audio #2
ID : 3
Format : AC-3
Format/Info : Audio Coding 3
Codec ID : A_AC3
Duration : 1 h 36 min
Bit rate mode : Constant
Bit rate : 448 kb/s
Channel(s) : 6 channels
Channel positions : Front: L C R, Side: L R, LFE
Sampling rate : 48.0 kHz
Frame rate : 31.250 FPS (1536 SPF)
Bit depth : 16 bits
Compression mode : Lossy
Stream size : 310 MiB (8%)
Title : оригинал
Language : English
Service kind : Complete Main
Default : No
Forced : No

Text
ID : 4
Format : UTF-8
Codec ID : S_TEXT/UTF8
Codec ID/Info : UTF-8 Plain Text
Language : English
Default : No
Forced : No

Menu
00:00:00.000 : :Chapter 01
00:05:12.353 : :Chapter 02
00:10:52.318 : :Chapter 03
00:20:03.744 : :Chapter 04
00:24:12.033 : :Chapter 05
00:30:02.133 : :Chapter 06
00:36:54.003 : :Chapter 07
00:46:18.525 : :Chapter 08
00:57:29.779 : :Chapter 09
01:06:20.351 : :Chapter 10
01:11:18.190 : :Chapter 11
01:15:50.212 : :Chapter 12
01:19:30.515 : :Chapter 13
01:29:37.372 : :Chapter 14
01:32:30.086 : :Chapter 15
Скріншоти





За запис з ТБ дякую п. xslim, Bohdan237, karvai0
За синхронізовану українську доріжку подяка п. Arsenfpu
Особиста подяка пану denixx за надану матеріальну допомогу на підтримку цього і майбутніх релізів.
Джерело:


Срібний реліз (на рейтинг впливає 50% завантаженого)
 Трекер:    Зареєстрований   

Завантажити / скачати фільм українською



відео для новачків



 Зареєстрований:   2018-07-15 14:13
 Розмір:   3.77 GB 
 Оцінка фільму:   9.8/10 (Голосів: 10)
   
Інші релізи
   48 годин / 48 Hrs. (1982) Remux 1080p 2xUkr/Eng | Sub Eng MakRA  3 / 0   23.87 GB   2020-03-05 14:59 
   48 годин / 48 Hrs. (1982) AVC 2xUkr/Eng | Sub Eng 21jumpstreet  5 / 0   2.86 GB   2020-03-05 14:03 
   48 годин / 48 Hrs. (1982) Ukr/Eng Arsenfpu  3 / 0   1.74 GB   2017-09-01 14:00 
+380954897458 
VIP


З нами з: 02.06.17
Востаннє: 18.09.20
Повідомлень: 942

2018-07-16 23:48  
Один із тих фільмів, з яких почалася епоха великих бойовиків 80-х. Ніколи не набридає, скільки би не передивлявся. Ніколи не застаріє. Одна із біблій жанру !!!
Ваш часовий пояс: GMT + 2 Години

Нова тема   Відповісти